<?xml version="1.0" standalone="no"?>
<!DOCTYPE svg PUBLIC "-//W3C//DTD SVG 1.1//EN" "http://www.w3.org/Graphics/SVG/1.1/DTD/svg11.dtd">
<svg xmlns="http://www.w3.org/2000/svg">
<defs >
<font id="SourceCodePro" horiz-adv-x="599" ><font-face
    font-family="Source Code Pro"
    units-per-em="1000"
    panose-1="2 11 5 9 3 4 3 2 2 4"
    ascent="984"
    descent="-273"
    alphabetic="0" />
<glyph unicode=" " glyph-name="space" horiz-adv-x="600" />
<glyph unicode="!" glyph-name="exclam" horiz-adv-x="600" d="M262 576L260 670H340L338 576L328 232H272L262 576ZM227 66Q227 101 248 121T300 142Q330 142 351 122T373 66Q373 30 352 9T300 -12Q270 -12 249 9T227 66Z" />
<glyph unicode="&quot;" glyph-name="quotedbl" horiz-adv-x="600" d="M389 577L387 687H497L495 577L470 352H414L389 577ZM362 577L360 687H470L468 577L443 352H387L362 577Z" />
<glyph unicode="#" glyph-name="numbersign" horiz-adv-x="600" d="M166 204H87V261H173L192 409H107V467H198L222 650H275L252 467H384L408 650H461L438 467H519V409H432L413 261H499V204H406L382 0H328L353 204H220L196 0H142L166 204ZM359 261L378 409H245L227
261H359Z" />
<glyph unicode="$" glyph-name="dollar" horiz-adv-x="600" d="M451 493Q434 506 419 516T386 534T349 546T304 550Q253 550 224 528T194 467Q194 439 217 421T276 388T353 358T429 322T488 271T512 195Q512 163 500 136T464 88T408 54T336 36V-110H276V35Q220
40 170 62T85 113L124 170Q162 143 207 123T310 102Q370 102 400 126T431 189Q431 220 408 240T349 277T273 308T196 343T138 392T114 465Q114 528 158 568T276 616V748H336V617Q391 612 428 591T495 541L451 493Z" />
<glyph unicode="%" glyph-name="percent" horiz-adv-x="600" d="M167 321Q106 321 67 365T28 488Q28 566 67 608T167 650Q228 650 267 608T306 488Q306 409 267 365T167 321ZM167 371Q199 371 222 399T245 488Q245 548 222 574T167 601Q135 601 112 575T89 488Q89
428 112 400T167 371ZM28 77L211 265L244 235L77 32L28 77ZM572 579L389 391L356 421L523 624L572 579ZM434 -12Q373 -12 334 32T295 155Q295 233 334 275T434 317Q495 317 534 275T573 155Q573 76 534 32T434 -12ZM434 38Q466 38 489 66T512 155Q512 215 489 241T434
268Q402 268 379 242T356 155Q356 95 379 67T434 38Z" />
<glyph unicode="&amp;" glyph-name="ampersand" horiz-adv-x="600" d="M122 175Q122 148 132 126T159 87T199 63T248 54Q279 54 308 68T363 106Q315 148 273 198T196 302Q164 274 143 244T122 175ZM192 514Q192 487 200 458T222 399Q243 414 261 429T294 461T317
496T325 537Q325 566 312 587T265 609Q230 609 211 582T192 514ZM554 -12Q489 8 417 63Q381 28 338 8T238 -12Q194 -12 158 1T97 39T57 96T42 170Q42 202 52 229T79 278T119 320T165 358Q144 399 133 438T121 513Q121 546 131 574T160 623T205 656T265 668Q326
668 359 632T392 538Q392 506 380 480T347 431T302 387T251 346Q283 295 324 248T411 162Q439 202 459 249T494 354H570Q552 289 526 230T464 119Q524 73 577 56L554 -12Z" />
<glyph unicode="&apos;" glyph-name="quotesingle" horiz-adv-x="600" d="M247 577L245 687H355L353 577L328 352H272L247 577Z" />
<glyph unicode="(" glyph-name="parenleft" horiz-adv-x="600" d="M433 -176Q329 -95 269 19T208 278Q208 423 268 537T433 732L478 690Q377 605 330 505T282 278Q282 151 329 51T478 -134L433 -176V-176Z" />
<glyph unicode=")" glyph-name="parenright" horiz-adv-x="600" d="M122 -134Q223 -49 270 51T318 278Q318 405 271 505T122 690L167 732Q271 651 331 537T392 278Q392 133 332 19T167 -176L122 -134Z" />
<glyph unicode="*" glyph-name="asterisk" horiz-adv-x="600" d="M138 141L246 306L84 376L100 422L267 367L276 556H324L333 367L500 422L516 376L354 306L462 141L420 111L300 270L180 111L138 141Z" />
<glyph unicode="+" glyph-name="plus" horiz-adv-x="600" d="M267 299H85V361H267V556H333V361H515V299H333V104H267V299Z" />
<glyph unicode="," glyph-name="comma" horiz-adv-x="600" d="M197 -161Q259 -133 290 -94T323 6Q318 5 314 5T304 4Q272 4 249 22T226 79Q226 116 250 135T306 155Q351 155 373 121T396 27Q396 -61 350 -121T220 -213L197 -161Z" />
<glyph unicode="-" glyph-name="hyphen" horiz-adv-x="600" d="M85 361H515V299H85V361Z" />
<glyph unicode="." glyph-name="period" horiz-adv-x="600" d="M219 72Q219 110 242 133T300 157Q334 157 357 134T381 72Q381 34 358 11T300 -12Q266 -12 243 11T219 72Z" />
<glyph unicode="/" glyph-name="slash" horiz-adv-x="600" d="M173 -160H99L427 710H501L173 -160Z" />
<glyph unicode="0" glyph-name="zero" horiz-adv-x="600" d="M300 -12Q193 -12 132 74T71 321Q71 482 132 566T300 650Q407 650 468 566T529 321Q529 161 468 75T300 -12ZM300 584Q267 584 239 569T191 522T159 440T148 321Q148 184 190 119T300 54Q367 54 409
119T452 321Q452 390 441 439T410 521T361 569T300 584ZM300 261Q275 261 257 278T238 328Q238 359 256 376T300 394Q325 394 343 377T362 328Q362 296 344 279T300 261Z" />
<glyph unicode="1" glyph-name="one" horiz-adv-x="600" d="M528 68V0H98V68H279V538H143V591Q194 599 232 610T300 638H361V68H528Z" />
<glyph unicode="2" glyph-name="two" horiz-adv-x="600" d="M73 49Q154 121 216 179T321 285T386 376T408 458Q408 513 374 548T269 583Q224 583 186 561T116 506L69 553Q112 597 161 623T279 650Q327 650 365 637T431 599T472 539T487 462Q487 417 466 372T405
278T312 177T193 65Q222 67 252 69T312 71H522V0H73V49Z" />
<glyph unicode="3" glyph-name="three" horiz-adv-x="600" d="M99 132Q131 102 175 79T282 56Q315 56 343 64T391 88T423 124T435 173Q435 201 423 224T382 265T310 291T203 300V363Q260 363 299 372T364 397T400 435T412 482Q412 529 377 556T282 583Q237 583
197 565T125 518L81 570Q121 605 172 627T285 650Q330 650 368 639T435 608T480 557T496 488Q496 430 458 393T360 336V332Q392 325 420 312T471 278T505 230T518 170Q518 128 500 94T451 37T377 1T287 -12Q204 -12 148 15T57 78L99 132Z" />
<glyph unicode="4" glyph-name="four" horiz-adv-x="600" d="M368 242V440Q369 466 370 496T373 553H368Q353 530 336 507T303 460L130 242H368ZM545 176H446V0H368V176H39V231L358 638H446V242H545V176Z" />
<glyph unicode="5" glyph-name="five" horiz-adv-x="600" d="M97 129Q113 115 131 102T170 78T218 62T277 56Q311 56 340 66T392 96T426 142T439 202Q439 268 397 305T282 342Q242 342 214 332T152 303L108 331L129 638H490V567H202L185 378Q213 390 239 397T303
404Q349 404 389 392T458 356T505 294T522 204Q522 152 503 112T450 45T375 3T286 -12Q243 -12 209 -5T147 15T97 42T56 75L97 129Z" />
<glyph unicode="6" glyph-name="six" horiz-adv-x="600" d="M321 53Q349 53 374 63T417 91T445 135T456 193Q456 259 421 293T320 328Q282 328 240 309T157 242Q166 149 208 101T321 53ZM476 531Q451 554 418 567T349 581Q311 581 276 567T215 521T172 437T154
307Q192 345 239 367T335 390Q379 390 415 378T478 341T519 279T534 193Q534 147 517 110T470 45T403 3T321 -12Q269 -12 225 7T147 64T96 160T77 295Q77 391 99 458T158 568T243 630T344 650Q403 650 446 631T522 582L476 531Z" />
<glyph unicode="7" glyph-name="seven" horiz-adv-x="600" d="M226 0Q230 91 243 165T281 307T344 437T438 567H70V638H532V587Q469 515 428 449T362 315T326 170T312 0H226V0Z" />
<glyph unicode="8" glyph-name="eight" horiz-adv-x="600" d="M143 171Q143 117 186 83T304 49Q376 49 414 80T452 161Q452 194 437 216T394 255T331 283T252 310Q205 284 174 252T143 171ZM352 348Q432 406 432 476Q432 524 399 556T303 589Q249 589 216 561T183
486Q183 457 196 437T232 400T285 372T352 348ZM68 163Q68 196 80 222T111 269T154 305T205 333V337Q165 362 137 398T108 486Q108 523 122 553T163 604T226 638T305 650Q352 650 388 638T450 603T489 549T503 480Q503 435 475 396T406 328V324Q432 311 455 296T495
262T521 218T531 158Q531 122 516 91T471 37T400 1T302 -12Q248 -12 205 1T131 37T85 93T68 163Z" />
<glyph unicode="9" glyph-name="nine" horiz-adv-x="600" d="M281 310Q318 310 360 329T444 395Q434 489 393 537T280 585Q251 585 227 575T184 547T156 502T145 445Q145 379 179 345T281 310ZM125 107Q149 84 182 70T252 56Q290 56 324 70T385 116T428 201T446
330Q407 292 361 270T265 248Q221 248 185 260T122 297T82 359T67 445Q67 491 84 528T130 593T198 635T279 650Q331 650 376 631T454 574T505 478T524 343Q524 247 502 180T442 70T357 8T257 -12Q198 -12 155 7T79 55L125 107Z" />
<glyph unicode=":" glyph-name="colon" horiz-adv-x="600" d="M219 430Q219 468 242 491T300 515Q334 515 357 492T381 430Q381 392 358 369T300 346Q266 346 243 369T219 430ZM219 72Q219 110 242 133T300 157Q334 157 357 134T381 72Q381 34 358 11T300 -12Q266
-12 243 11T219 72Z" />
<glyph unicode=";" glyph-name="semicolon" horiz-adv-x="600" d="M219 430Q219 468 242 491T300 515Q334 515 357 492T381 430Q381 392 358 369T300 346Q266 346 243 369T219 430ZM197 -161Q259 -133 290 -94T323 6Q318 5 314 5T304 4Q272 4 249 22T226 79Q226
116 250 135T306 155Q351 155 373 121T396 27Q396 -61 350 -121T220 -213L197 -161Z" />
<glyph unicode="&lt;" glyph-name="less" horiz-adv-x="600" d="M120 363L493 616V537L192 334V330L493 127V48L120 301V363Z" />
<glyph unicode="=" glyph-name="equal" horiz-adv-x="600" d="M85 468H515V406H85V468ZM85 511H515V449H85V511Z" />
<glyph unicode="&gt;" glyph-name="greater" horiz-adv-x="600" d="M480 301L107 48V127L408 330V334L107 537V616L480 363V301Z" />
<glyph unicode="?" glyph-name="question" horiz-adv-x="600" d="M242 232Q236 268 245 296T271 347T311 390T352 429T385 470T398 517Q398 559 371 586T288 614Q250 614 218 599T158 556L109 601Q143 636 189 659T293 682Q335 682 369 671T427 640T465 591T479
526Q479 493 466 468T433 421T391 379T350 337T321 290T315 232H242ZM213 66Q213 101 234 121T286 142Q316 142 337 122T359 66Q359 30 338 9T286 -12Q256 -12 235 9T213 66Z" />
<glyph unicode="@" glyph-name="at" horiz-adv-x="600" d="M546 100H496L489 158H485Q463 130 428 109T353 88Q326 88 303 97T262 123T234 164T224 219Q224 296 292 335T488 390V404Q488 440 480 472T453 528T407 566T339 580Q294 580 253 559T181 497T131 393T112
247Q112 167 130 105T179 -1T252 -66T343 -89Q388 -89 421 -78T484 -44L512 -89Q473 -116 432 -130T341 -144Q282 -144 229 -119T136 -44T73 80T49 250Q49 346 71 418T134 538T227 610T343 635Q395 635 433 617T496 567T533 492T546 397V100ZM290 221Q290 186 311
166T370 146Q426 146 482 210V336Q378 322 334 295T290 221Z" />
<glyph unicode="A" glyph-name="A" horiz-adv-x="600" d="M397 267L366 367Q349 422 333 476T301 588H297Q281 531 265 477T232 367L201 267H397ZM418 200H180L117 0H32L253 656H347L568 0H480L418 200Z" />
<glyph unicode="B" glyph-name="B" horiz-adv-x="600" d="M103 656H283Q333 656 374 647T445 619T491 570T508 496Q508 447 480 408T393 353V349Q465 338 505 299T545 192Q545 144 527 108T477 48T399 12T298 0H103V656ZM269 376Q353 376 389 405T426 489Q426
543 388 566T273 590H187V376H269ZM286 66Q371 66 417 97T463 196Q463 257 418 285T286 314H187V66H286Z" />
<glyph unicode="C" glyph-name="C" horiz-adv-x="600" d="M66 328Q66 407 87 470T148 577T241 644T359 668Q419 668 464 644T538 588L491 535Q465 562 433 578T359 595Q312 595 274 577T208 524T167 440T152 330Q152 268 166 219T208 134T273 80T359 61Q404 61
439 80T506 134L554 83Q515 38 466 13T354 -12Q292 -12 240 11T149 77T88 184T66 328Z" />
<glyph unicode="D" glyph-name="D" horiz-adv-x="600" d="M85 656H245Q394 656 471 572T549 331Q549 253 530 192T472 88T378 23T249 0H85V656ZM240 68Q352 68 407 137T463 331Q463 456 408 522T240 588H168V68H240Z" />
<glyph unicode="E" glyph-name="E" horiz-adv-x="600" d="M115 656H520V586H199V380H470V309H199V71H530V0H115V656Z" />
<glyph unicode="F" glyph-name="F" horiz-adv-x="600" d="M135 656H536V586H218V364H487V294H218V0H135V656Z" />
<glyph unicode="G" glyph-name="G" horiz-adv-x="600" d="M53 328Q53 407 74 470T134 577T226 644T344 668Q377 668 404 661T453 643T493 617T525 588L478 535Q454 561 423 578T344 595Q298 595 261 577T196 524T155 440T140 330Q140 268 153 219T192 134T256
80T342 61Q377 61 407 71T456 100V271H325V340H533V64Q501 32 451 10T337 -12Q275 -12 223 11T133 77T74 184T53 328Z" />
<glyph unicode="H" glyph-name="H" horiz-adv-x="600" d="M79 656H163V381H437V656H521V0H437V309H163V0H79V656Z" />
<glyph unicode="I" glyph-name="I" horiz-adv-x="600" d="M95 71H258V586H95V656H505V586H342V71H505V0H95V71Z" />
<glyph unicode="J" glyph-name="J" horiz-adv-x="600" d="M135 147Q164 103 200 82T274 61Q345 61 377 98T410 217V587H135V657H493V210Q493 164 482 124T446 53T379 6T276 -12Q220 -12 168 14T81 97L135 147Z" />
<glyph unicode="K" glyph-name="K" horiz-adv-x="600" d="M98 656H182V327H185L461 656H555L348 406L579 0H486L296 341L182 208V0H98V656Z" />
<glyph unicode="L" glyph-name="L" horiz-adv-x="600" d="M134 656H216V71H541V0H134V656Z" />
<glyph unicode="M" glyph-name="M" horiz-adv-x="600" d="M81 656H173L266 377L299 271H303L335 377L427 656H519V0H448V369Q448 389 449 416T451 470T454 524T458 571H455L412 431L322 178H277L187 431L143 571H140Q141 551 143 525T147 471T150 416T151 369V0H81V656Z" />
<glyph unicode="N" glyph-name="N" horiz-adv-x="600" d="M83 656H168L381 242L447 108H449Q447 157 443 210T438 316V656H517V0H432L219 414L153 548H151Q153 497 157 446T162 343V0H83V656Z" />
<glyph unicode="O" glyph-name="O" horiz-adv-x="600" d="M300 -12Q244 -12 198 12T119 80T67 188T48 331Q48 410 66 472T118 578T198 645T300 668Q355 668 401 645T481 578T533 472T552 331Q552 252 534 189T482 81T402 12T300 -12ZM300 61Q337 61 368 80T420
134T454 219T466 331Q466 392 454 441T421 524T368 576T300 595Q262 595 232 577T180 524T146 441T134 331Q134 269 146 220T179 135T231 80T300 61Z" />
<glyph unicode="P" glyph-name="P" horiz-adv-x="600" d="M102 656H303Q357 656 402 646T478 614T527 554T545 463Q545 411 528 373T478 310T402 273T303 260H185V0H102V656ZM292 328Q379 328 420 360T462 463Q462 534 420 561T292 589H185V328H292Z" />
<glyph unicode="Q" glyph-name="Q" horiz-adv-x="600" d="M134 331Q134 270 145 220T178 135T230 80T299 60Q336 60 366 79T418 134T451 220T463 331Q463 392 452 441T419 525T367 578T299 597Q261 597 231 579T179 526T146 442T134 331ZM553 -149Q537 -155 519
-159T479 -163Q392 -163 338 -119T258 -8Q211 0 173 27T107 98T64 201T49 331Q49 410 67 472T118 578T197 645T299 669Q354 669 400 646T479 579T530 472T548 331Q548 261 534 203T493 102T430 30T347 -7Q364 -49 401 -70T489 -92Q504 -92 516 -89T538 -82L553
-149Z" />
<glyph unicode="R" glyph-name="R" horiz-adv-x="600" d="M183 345H292Q369 345 409 376T450 472Q450 537 410 563T292 589H183V345ZM458 0L300 277H183V0H100V656H304Q354 656 396 647T468 615T516 558T533 472Q533 395 493 349T386 286L553 0H458Z" />
<glyph unicode="S" glyph-name="S" horiz-adv-x="600" d="M117 143Q154 106 203 84T306 61Q376 61 414 90T452 168Q452 193 443 210T418 240T381 263T334 284L240 325Q215 335 190 349T145 383T111 430T98 494Q98 531 114 563T158 618T226 655T313 668Q375 668
427 646T515 587L471 533Q439 562 401 578T313 595Q253 595 218 570T183 499Q183 475 193 459T220 430T258 408T300 390L392 350Q422 338 448 323T494 287T525 239T537 175Q537 136 521 102T475 43T402 3T305 -12Q233 -12 173 14T67 85L117 143Z" />
<glyph unicode="T" glyph-name="T" horiz-adv-x="600" d="M258 586H42V656H558V586H342V0H258V586Z" />
<glyph unicode="U" glyph-name="U" horiz-adv-x="600" d="M79 656H163V246Q163 195 173 160T202 103T246 71T301 61Q331 61 356 71T400 102T429 159T440 246V656H521V248Q521 177 505 128T459 48T390 2T301 -12Q253 -12 212 2T142 47T96 128T79 248V656Z" />
<glyph unicode="V" glyph-name="V" horiz-adv-x="600" d="M43 656H131L237 302Q254 243 268 193T300 85H304Q313 114 321 140T336 193T351 246T367 302L472 656H557L349 0H252L43 656Z" />
<glyph unicode="W" glyph-name="W" horiz-adv-x="600" d="M10 657H93L146 245Q148 203 152 164T160 83H163Q174 124 184 164T205 245L274 487H333L402 245Q411 205 421 165T443 83H447Q450 124 454 164T461 245L511 657H590L493 0H401L326 275Q319 304 313 334T302
393H299Q293 364 287 334T273 275L201 0H111L10 657Z" />
<glyph unicode="X" glyph-name="X" horiz-adv-x="600" d="M250 339L67 656H159L251 488Q264 465 276 444T304 393H308Q322 422 332 443T355 488L445 656H533L350 335L546 0H454L355 177Q341 201 328 226T297 282H293Q279 252 266 227T240 177L142 0H54L250 339Z" />
<glyph unicode="Y" glyph-name="Y" horiz-adv-x="600" d="M258 234L38 656H126L225 461Q244 423 262 386T300 308H304Q324 348 343 386T381 462L476 656H562L342 234V0H258V234Z" />
<glyph unicode="Z" glyph-name="Z" horiz-adv-x="600" d="M65 50L432 587H97V657H534V607L166 71H539V0H65V50Z" />
<glyph unicode="[" glyph-name="bracketleft" horiz-adv-x="600" d="M226 708H502V660H291V-104H502V-152H226V708Z" />
<glyph unicode="\" glyph-name="backslash" horiz-adv-x="600" d="M99 710H173L501 -160H427L99 710Z" />
<glyph unicode="]" glyph-name="bracketright" horiz-adv-x="600" d="M309 -104V660H99V708H375V-152H99V-104H309Z" />
<glyph unicode="^" glyph-name="asciicircum" horiz-adv-x="600" d="M264 670H336L489 284H417L351 460L302 593H298L249 460L183 284H111L264 670Z" />
<glyph unicode="_" glyph-name="underscore" horiz-adv-x="600" d="M540 -69V-140H60V-69H540Z" />
<glyph unicode="`" glyph-name="grave" horiz-adv-x="600" d="M185 721H275L365 573H302L185 721Z" />
<glyph unicode="a" glyph-name="a" horiz-adv-x="600" d="M81 126Q81 167 100 197T162 250T272 286T433 308Q432 333 425 355T403 393T364 420T304 430Q256 430 212 412T134 372L102 428Q120 440 144 452T196 475T255 491T318 498Q418 498 466 444T515 298V0H448L441
66H438Q397 34 348 11T246 -12Q212 -12 182 -3T130 24T94 67T81 126ZM161 132Q161 111 170 97T193 73T227 59T268 54Q310 54 350 72T433 126V254Q355 248 303 237T219 211T174 176T161 132Z" />
<glyph unicode="b" glyph-name="b" horiz-adv-x="600" d="M93 712H175V518L173 424Q208 458 251 478T338 498Q387 498 425 481T488 431T527 353T540 251Q540 189 522 140T474 57T403 6T320 -12Q285 -12 245 5T169 54H166L159 0H93V712ZM175 114Q210 83 245 70T307
57Q339 57 366 70T413 108T444 169T455 250Q455 290 447 323T423 379T380 416T318 429Q286 429 250 412T175 356V114Z" />
<glyph unicode="c" glyph-name="c" horiz-adv-x="600" d="M80 242Q80 303 101 350T160 431T246 481T351 498Q411 498 454 477T528 427L487 374Q457 400 425 415T354 430Q312 430 277 417T218 378T179 319T165 242Q165 200 178 166T216 108T275 70T352 56Q397 56
434 73T503 117L539 64Q499 28 450 8T346 -12Q289 -12 241 5T156 54T100 134T80 242Z" />
<glyph unicode="d" glyph-name="d" horiz-adv-x="600" d="M60 242Q60 301 78 348T127 429T198 480T281 498Q326 498 360 481T428 435L425 525V712H507V0H439L432 64H429Q399 33 358 11T271 -12Q223 -12 185 5T118 54T75 134T60 242ZM145 243Q145 155 182 106T288
57Q360 57 425 130V372Q392 403 361 416T297 429Q265 429 238 416T190 378T157 319T145 243Z" />
<glyph unicode="e" glyph-name="e" horiz-adv-x="600" d="M69 242Q69 302 90 349T145 430T224 480T316 498Q368 498 409 482T478 435T522 363T537 270Q537 257 537 245T534 223H154Q155 184 169 153T208 100T266 66T340 54Q383 54 418 66T488 99L517 45Q481 22
435 5T330 -12Q276 -12 229 5T146 55T90 135T69 242ZM461 282Q461 355 423 394T317 433Q287 433 260 423T210 394T173 346T153 282H461Z" />
<glyph unicode="f" glyph-name="f" horiz-adv-x="600" d="M559 634Q529 648 504 652T446 657Q380 657 352 624T323 530V486H527V419H323V0H242V419H103V481L242 486V527Q242 616 289 670T438 724Q510 724 578 696L559 634Z" />
<glyph unicode="g" glyph-name="g" horiz-adv-x="600" d="M143 -81Q143 -119 183 -143T302 -167Q344 -167 378 -159T436 -136T472 -104T485 -67Q485 -32 458 -20T374 -8H279Q258 -8 240 -7T205 0Q170 -19 157 -39T143 -81ZM72 -89Q72 -60 92 -32T152 19V23Q132
34 117 53T102 103Q102 126 117 150T160 194V198Q135 217 118 248T100 324Q100 364 115 396T157 450T217 485T291 498Q331 498 363 486H564V423H434Q451 405 465 379T479 321Q479 282 465 251T425 199T365 166T291 154Q272 154 251 158T209 172Q171 148 171 116Q171
87 197 74T272 60H381Q475 60 520 34T566 -54Q566 -88 547 -119T493 -173T408 -210T296 -224Q189 -224 131 -189T72 -89ZM291 209Q338 209 370 240T403 324Q403 349 394 370T370 406T335 429T291 438Q268 438 248 430T212 406T188 370T179 324Q179 271 212 240T291
209Z" />
<glyph unicode="h" glyph-name="h" horiz-adv-x="600" d="M93 712H175V518L171 403Q210 444 254 471T355 498Q442 498 482 449T523 302V0H441V291Q441 360 415 393T329 427Q307 427 289 422T252 405T215 378T175 339V0H93V712Z" />
<glyph unicode="i" glyph-name="i" horiz-adv-x="600" d="M90 486H398V0H316V419H90V486ZM348 586Q319 586 301 603T282 649Q282 678 300 695T348 713Q376 713 395 696T414 649Q414 620 395 603T348 586Z" />
<glyph unicode="j" glyph-name="j" horiz-adv-x="600" d="M90 486H398V-12Q398 -57 388 -94T355 -159T292 -202T194 -217Q156 -217 120 -208T55 -184L82 -123Q108 -136 136 -143T193 -150Q229 -150 253 -141T291 -115T310 -74T316 -18V419H90V486ZM348 586Q319
586 301 603T282 649Q282 678 300 695T348 713Q376 713 395 696T414 649Q414 620 395 603T348 586Z" />
<glyph unicode="k" glyph-name="k" horiz-adv-x="600" d="M106 712H188V230H192L454 486H548L354 293L574 0H482L303 243L188 132V0H106V712Z" />
<glyph unicode="l" glyph-name="l" horiz-adv-x="600" d="M81 712H329V157Q329 103 354 80T424 56Q464 56 516 79L537 17Q504 5 475 -3T406 -12Q328 -12 288 32T247 163V645H81V712Z" />
<glyph unicode="m" glyph-name="m" horiz-adv-x="600" d="M60 486H124L131 422H134Q152 456 176 477T243 498Q317 498 335 414Q357 452 383 475T450 498Q501 498 528 460T556 348V0H477V341Q477 427 424 427Q398 427 379 409T341 352V0H275V341Q275 427 220 427Q194
427 176 409T139 352V0H60V486Z" />
<glyph unicode="n" glyph-name="n" horiz-adv-x="600" d="M93 486H161L168 403H172Q210 444 254 471T355 498Q442 498 482 449T523 302V0H441V291Q441 360 415 393T329 427Q307 427 289 422T252 405T215 378T175 339V0H93V486Z" />
<glyph unicode="o" glyph-name="o" horiz-adv-x="600" d="M60 242Q60 303 79 350T132 431T208 481T300 498Q348 498 391 481T468 431T520 351T540 242Q540 182 521 135T468 55T392 5T300 -12Q252 -12 209 5T132 54T80 134T60 242ZM145 242Q145 200 156 166T187
108T236 70T300 56Q335 56 363 69T412 107T444 166T455 242Q455 284 444 318T413 378T364 416T300 430Q265 430 237 417T188 378T156 319T145 242Z" />
<glyph unicode="p" glyph-name="p" horiz-adv-x="600" d="M175 -41V-205H93V486H161L168 424H171Q205 456 249 477T339 498Q388 498 425 481T488 431T527 353T540 250Q540 188 522 140T474 57T403 6T319 -12Q285 -12 246 4T173 51L175 -41ZM175 114Q210 83 245
70T305 57Q371 57 413 108T455 250Q455 290 447 323T423 379T380 416T318 429Q286 429 250 412T175 356V114Z" />
<glyph unicode="q" glyph-name="q" horiz-adv-x="600" d="M60 242Q60 301 78 348T127 429T198 480T281 498Q326 498 361 481T431 432H434L441 486H507V-205H425V-26L429 62Q397 31 357 10T271 -12Q223 -12 185 5T118 54T75 134T60 242ZM145 243Q145 155 182 106T288
57Q360 57 425 130V372Q392 403 361 416T297 429Q265 429 238 416T190 378T157 319T145 243Z" />
<glyph unicode="r" glyph-name="r" horiz-adv-x="600" d="M146 486H214L221 371H224Q262 430 317 464T441 498Q468 498 491 494T537 478L518 407Q492 416 475 420T428 424Q373 424 323 393T228 285V0H146V486Z" />
<glyph unicode="s" glyph-name="s" horiz-adv-x="600" d="M112 118Q153 88 200 70T313 52Q379 52 411 74T443 128Q443 156 409 178T285 222Q247 231 214 244T155 274T115 313T100 360Q100 389 113 414T151 458T215 487T304 498Q359 498 411 480T499 436L459 383Q427
406 388 420T304 434Q270 434 247 429T210 414T190 391T184 364Q184 334 225 315T332 278Q431 253 478 221T526 133Q526 103 512 77T471 31T403 0T310 -12Q238 -12 178 10T72 64L112 118Z" />
<glyph unicode="t" glyph-name="t" horiz-adv-x="600" d="M206 419H69V481L209 486L220 622H288V486H527V419H288V188Q288 155 294 131T314 89T352 64T411 55Q446 55 474 61T528 77L546 17Q513 5 473 -3T393 -12Q340 -12 304 2T247 43T216 107T206 189V419Z" />
<glyph unicode="u" glyph-name="u" horiz-adv-x="600" d="M505 0H438L431 85H427Q390 42 347 15T246 -12Q158 -12 118 37T77 184V486H160V195Q160 126 185 93T272 59Q314 59 348 80T423 149V486H505V0Z" />
<glyph unicode="v" glyph-name="v" horiz-adv-x="600" d="M51 486H134L246 210Q261 173 274 138T301 67H305Q318 102 330 137T358 210L470 486H549L348 0H256L51 486Z" />
<glyph unicode="w" glyph-name="w" horiz-adv-x="600" d="M8 486H92L151 205Q158 170 164 137T175 70H179Q186 104 193 137T208 205L267 457H337L397 205Q405 170 412 137T427 70H431Q438 104 443 137T455 205L514 486H592L486 0H387L329 246Q322 281 316 315T302
387H298Q292 355 286 321T271 245L215 0H117L8 486Z" />
<glyph unicode="x" glyph-name="x" horiz-adv-x="600" d="M249 252L78 486H169L246 379Q259 359 273 338T303 297H307Q321 317 335 339T362 381L435 486H522L349 245L535 0H445L360 112Q345 133 329 156T296 200H292Q277 178 262 157T232 112L152 0H64L249 252Z" />
<glyph unicode="y" glyph-name="y" horiz-adv-x="600" d="M84 -134Q94 -137 105 -139T128 -141Q179 -141 211 -112T261 -37L276 -1L49 486H132L251 217Q265 185 280 148T311 76H315Q328 111 341 147T367 217L473 486H551L337 -40Q323 -76 305 -107T262 -160T205
-196T131 -209Q95 -209 67 -199L84 -134V-134Z" />
<glyph unicode="z" glyph-name="z" horiz-adv-x="600" d="M71 44L404 419H108V486H522V442L188 67H532V0H71V44Z" />
<glyph unicode="{" glyph-name="braceleft" horiz-adv-x="600" d="M256 -19Q256 8 257 32T260 80T263 126T265 174Q265 189 259 202T237 227T193 245T120 252V304Q164 304 192 311T237 329T259 353T265 382Q265 430 261 476T256 575Q256 614 267 639T301 680T359
701T441 708H502V660H450Q412 660 388 655T350 640T331 612T326 570Q326 527 329 482T332 389Q332 340 313 315T241 280V276Q293 267 312 242T332 167Q332 116 329 74T326 -14Q326 -38 331 -55T349 -83T387 -99T450 -104H502V-152H441Q394 -152 359 -146T301 -124T267
-84T256 -19Z" />
<glyph unicode="|" glyph-name="bar" horiz-adv-x="600" d="M263 750H337V-250H263V750Z" />
<glyph unicode="}" glyph-name="braceright" horiz-adv-x="600" d="M150 -104Q188 -104 212 -99T251 -84T270 -56T275 -14Q275 32 272 74T269 167Q269 216 288 241T359 276V280Q307 289 288 314T269 389Q269 436 272 481T275 570Q275 594 270 611T251 639T213
655T150 660H99V708H160Q207 708 241 702T299 680T333 640T344 575Q344 523 340 477T335 382Q335 367 341 354T363 329T407 311T480 304V252Q436 252 408 245T363 227T341 203T335 174Q335 149 336 126T339 80T342 33T344 -19Q344 -58 333 -83T299 -124T242 -145T160
-152H99V-104H150Z" />
<glyph unicode="~" glyph-name="asciitilde" horiz-adv-x="600" d="M76 278Q102 348 138 375T212 403Q242 403 265 390T309 361T349 332T390 319Q402 319 412 322T433 335T453 362T471 405L524 381Q498 311 462 284T388 257Q358 257 335 270T291 299T251 328T210
341Q187 341 167 324T129 255L76 278Z" />
<glyph unicode="&#xa0;" glyph-name="uni00A0" horiz-adv-x="600" />
<glyph unicode="&#xa1;" glyph-name="exclamdown" horiz-adv-x="600" d="M338 -90L340 -184H260L262 -90L272 254H328L338 -90ZM373 421Q373 385 352 365T300 344Q270 344 249 364T227 421Q227 456 248 477T300 498Q330 498 351 477T373 421Z" />
<glyph unicode="&#xa2;" glyph-name="cent" horiz-adv-x="600" d="M314 477Q258 464 226 420T194 310Q194 243 225 199T314 142V477ZM506 133Q476 107 440 90T365 70V-33H314V71Q269 76 232 94T169 142T128 215T113 310Q113 362 128 403T171 475T235 523T314 547V653H365V550Q409
548 441 531T496 492L456 440Q436 458 414 469T365 482V138Q397 140 423 153T470 185L506 133Z" />
<glyph unicode="&#xa3;" glyph-name="sterling" horiz-adv-x="600" d="M531 71V0H78V50Q141 78 171 125T202 230Q202 256 194 285H77V337L176 341Q165 373 155 403T144 466Q144 508 159 542T201 600T267 637T354 650Q416 650 458 629T530 575L482 528Q459 551
430 566T358 581Q292 581 258 549T223 464Q223 432 232 403T253 341H442V285H269Q275 258 275 229Q275 176 257 141T200 75V71H531Z" />
<glyph unicode="&#xa4;" glyph-name="currency" horiz-adv-x="600" d="M58 128L142 213Q125 236 116 265T106 329Q106 364 115 393T141 446L58 532L102 577L189 487Q237 524 300 524Q362 524 411 487L498 577L542 532L458 446Q475 423 484 394T494 329Q494 294
485 265T458 213L542 128L498 83L410 172Q387 153 359 144T300 134Q238 134 189 172L102 83L58 128ZM182 329Q182 299 191 275T217 232T254 205T300 195Q324 195 345 204T383 232T408 274T418 329Q418 359 409 383T383 426T346 453T300 463Q276 463 255 454T217
426T192 384T182 329Z" />
<glyph unicode="&#xa5;" glyph-name="yen" horiz-adv-x="600" d="M138 638L230 467Q247 434 263 401T299 332H303Q321 367 338 400T373 467L465 638H547L361 318H523V271H340V206H523V158H340V0H258V158H77V206H258V271H77V318H238L53 638H138Z" />
<glyph unicode="&#xa6;" glyph-name="brokenbar" horiz-adv-x="600" d="M263 750H337V291H263V750ZM337 214V-250H263V214H337Z" />
<glyph unicode="&#xa7;" glyph-name="section" horiz-adv-x="600" d="M371 192Q403 206 420 225T438 278Q438 312 418 334T366 372T299 403T230 436Q199 420 181 400T162 348Q162 315 182 294T234 256T302 225T371 192ZM423 574Q397 594 369 607T306 620Q264 620
245 602T226 557Q226 530 247 512T299 479T367 449T435 413T488 361T509 284Q509 236 485 206T419 154Q433 138 440 119T448 73Q448 43 436 18T403 -25T353 -53T287 -64Q232 -64 186 -45T108 7L158 52Q184 28 214 14T287 0Q328 0 350 20T373 69Q373 97 352 116T300
150T232 179T164 215T112 266T91 343Q91 388 116 420T182 473Q168 489 160 508T151 554Q151 580 160 603T189 645T236 673T302 684Q352 684 392 667T463 627L423 574Z" />
<glyph unicode="&#xa8;" glyph-name="dieresis" horiz-adv-x="600" d="M204 588Q180 588 165 604T150 643Q150 666 165 682T204 698Q227 698 242 682T258 643Q258 620 243 604T204 588ZM396 588Q373 588 358 604T342 643Q342 666 357 682T396 698Q420 698 435
682T450 643Q450 620 435 604T396 588Z" />
<glyph unicode="&#xa9;" glyph-name="copyright" horiz-adv-x="600" d="M30 323Q30 399 50 460T107 564T193 630T300 653Q357 653 406 630T492 565T549 461T570 323Q570 246 550 185T493 80T407 13T300 -11Q243 -11 194 12T108 79T51 184T30 323ZM76 323Q76 257
92 204T137 112T208 52T300 31Q350 31 391 52T462 111T508 203T524 323Q524 389 508 442T463 533T392 591T300 612Q250 612 209 592T138 533T92 442T76 323ZM146 323Q146 366 159 401T196 461T248 499T311 512Q346 512 370 499T415 465L381 426Q365 440 350 448T314
457Q268 457 240 420T212 323Q212 257 238 219T310 180Q336 180 355 190T391 214L421 172Q398 152 372 139T308 125Q274 125 245 138T193 177T159 239T146 323Z" />
<glyph unicode="&#xaa;" glyph-name="ordfeminine" horiz-adv-x="600" d="M167 345Q167 398 218 426T378 465Q377 495 362 517T308 539Q279 539 253 529T205 505L180 548Q206 563 242 576T318 590Q381 590 411 554T442 455V260H390L385 297H383Q359 278 331 265T270
252Q227 252 197 277T167 345ZM230 349Q230 325 247 314T289 302Q312 302 333 312T378 342V424Q297 415 264 397T230 349Z" />
<glyph unicode="&#xab;" glyph-name="guillemotleft" horiz-adv-x="600" d="M339 212V292L492 452L531 417L404 252L531 86L492 52L339 212ZM312 212V292L465 452L504 417L377 252L504 86L465 52L312 212Z" />
<glyph unicode="&#xac;" glyph-name="logicalnot" horiz-adv-x="600" d="M85 361H515V104H449V299H85V361Z" />
<glyph unicode="&#xad;" glyph-name="uni00AD" horiz-adv-x="600" d="M85 361H515V299H85V361Z" />
<glyph unicode="&#xae;" glyph-name="registered" horiz-adv-x="600" d="M300 319Q261 319 227 333T167 374T127 436T112 516Q112 560 126 596T166 658T226 698T300 713Q339 713 373 699T432 658T473 596T488 516Q488 472 473 436T433 374T373 334T300 319ZM300
356Q331 356 358 367T405 400T436 450T448 516Q448 551 437 580T406 631T359 665T300 677Q268 677 241 665T194 632T163 581T151 516Q151 480 162 451T194 400T241 368T300 356ZM227 620H303Q335 620 358 606T382 555Q382 537 372 522T344 500L390 417H344L309
487H268V417H227V620ZM294 519Q314 519 326 527T338 553Q338 568 329 577T296 586H268V519H294Z" />
<glyph unicode="&#xaf;" glyph-name="overscore" horiz-adv-x="600" d="M177 658H423V601H177V658Z" />
<glyph unicode="&#xb0;" glyph-name="degree" horiz-adv-x="600" d="M300 429Q275 429 253 438T213 463T185 503T175 556Q175 586 185 609T212 650T252 676T300 685Q325 685 348 676T388 650T415 610T426 556Q426 527 416 504T388 464T348 438T300 429ZM300 475Q334
475 355 498T376 556Q376 593 355 616T300 639Q267 639 246 616T225 556Q225 521 246 498T300 475Z" />
<glyph unicode="&#xb1;" glyph-name="plusminus" horiz-adv-x="600" d="M267 304H85V366H267V556H333V366H515V304H333V127H267V304ZM85 62H515V0H85V62Z" />
<glyph unicode="&#xb2;" glyph-name="two.sups" horiz-adv-x="600" d="M184 476Q262 535 303 574T345 646Q345 673 330 689T285 705Q265 705 246 694T213 663L174 696Q197 722 226 739T292 757Q346 757 377 731T408 654Q408 634 399 615T373 576T334 536T287 493H423V440H184V476Z"
/>
<glyph unicode="&#xb3;" glyph-name="three.sups" horiz-adv-x="600" d="M204 521Q219 503 243 491T295 478Q322 478 339 489T357 525Q357 576 261 576V614Q303 614 322 628T342 665Q342 685 329 696T287 708Q269 708 249 699T214 674L184 712Q203 732 233 744T299
757Q346 757 375 735T405 673Q405 618 349 598Q381 590 400 571T420 521Q420 476 385 452T299 428Q264 428 231 442T172 482L204 521Z" />
<glyph unicode="&#xb4;" glyph-name="acute" horiz-adv-x="600" d="M298 573H235L325 721H415L298 573Z" />
<glyph unicode="&#xb5;" glyph-name="uni00B5" horiz-adv-x="600" d="M77 486H160V195Q160 128 186 94T269 59Q288 59 307 63T345 80T383 113T423 170V486H506Q504 387 503 284T501 92Q501 72 509 64T528 56Q532 56 535 56T546 58L558 -4Q539 -12 510 -12Q472
-12 454 14T431 99H428Q396 43 356 17T268 -10Q233 -10 204 0T154 43Q154 5 154 -24T155 -80T157 -131T160 -187H77V486Z" />
<glyph unicode="&#xb6;" glyph-name="paragraph" horiz-adv-x="600" d="M404 656H485V-80H404V656ZM350 226H318Q265 226 220 238T142 277T91 345T72 443Q72 502 90 542T139 608T214 645T307 656H350V226Z" />
<glyph unicode="&#xb7;" glyph-name="middot" horiz-adv-x="600" d="M219 347Q219 385 242 408T300 432Q334 432 357 409T381 347Q381 309 358 286T300 263Q266 263 243 286T219 347Z" />
<glyph unicode="&#xb8;" glyph-name="cedilla" horiz-adv-x="600" d="M287 3H340L315 -50Q339 -58 356 -74T374 -121Q374 -143 362 -159T330 -186T284 -203T229 -213L221 -172Q261 -167 285 -156T310 -124Q310 -104 294 -94T247 -75L287 3Z" />
<glyph unicode="&#xb9;" glyph-name="one.sups" horiz-adv-x="600" d="M290 670H208V712Q241 717 261 725T303 745H353V440H290V670Z" />
<glyph unicode="&#xba;" glyph-name="ordmasculine" horiz-adv-x="600" d="M142 421Q142 461 155 492T189 545T239 578T300 590Q332 590 360 579T411 546T445 493T458 421Q458 381 446 350T411 297T361 264T300 252Q268 252 240 263T190 296T155 349T142 421ZM208
421Q208 368 232 336T300 304Q343 304 367 336T392 421Q392 473 368 505T300 538Q257 538 233 506T208 421Z" />
<glyph unicode="&#xbb;" glyph-name="guillemotright" horiz-adv-x="600" d="M480 252L353 417L392 452L545 292V212L392 52L353 86L480 252ZM453 252L326 417L365 452L518 292V212L365 52L326 86L453 252Z" />
<glyph unicode="&#xbc;" glyph-name="onequarter" horiz-adv-x="600" d="M157 563H75V605Q108 610 128 618T170 638H220V333H157V563ZM28 77L211 265L244 235L77 32L28 77ZM572 579L389 391L356 421L523 624L572 579ZM468 116V172L472 254H469L424 189L370 116H468ZM575
73H525V0H468V73H306V104L454 305H525V116H575V73Z" />
<glyph unicode="&#xbd;" glyph-name="onehalf" horiz-adv-x="600" d="M157 563H75V605Q108 610 128 618T170 638H220V333H157V563ZM28 77L211 265L244 235L77 32L28 77ZM572 579L389 391L356 421L523 624L572 579ZM318 36Q396 95 437 134T479 206Q479 233 464
249T419 265Q399 265 380 254T347 223L308 256Q331 282 360 299T426 317Q480 317 511 291T542 214Q542 194 533 175T507 136T468 96T421 53H557V0H318V36Z" />
<glyph unicode="&#xbe;" glyph-name="threequarters" horiz-adv-x="600" d="M71 414Q86 396 110 384T162 371Q189 371 206 382T224 418Q224 469 128 469V507Q170 507 189 521T209 558Q209 578 196 589T154 601Q136 601 116 592T81 567L51 605Q70 625 100 637T166
650Q213 650 242 628T272 566Q272 511 216 491Q248 483 267 464T287 414Q287 369 252 345T166 321Q131 321 98 335T39 375L71 414ZM53 77L236 265L269 235L102 32L53 77ZM597 579L414 391L381 421L548 624L597 579ZM468 116V172L472 254H469L424 189L370 116H468ZM575
73H525V0H468V73H306V104L454 305H525V116H575V73Z" />
<glyph unicode="&#xbf;" glyph-name="questiondown" horiz-adv-x="600" d="M359 254Q365 218 356 190T330 139T290 96T249 57T216 16T203 -31Q203 -73 231 -100T314 -127Q352 -127 384 -112T444 -70L492 -115Q459 -150 413 -173T308 -196Q224 -196 174 -154T123
-40Q123 -7 136 18T169 65T211 107T252 149T280 196T286 254H359ZM389 421Q389 385 367 365T315 344Q285 344 264 364T242 421Q242 456 263 477T315 498Q345 498 367 477T389 421Z" />
<glyph unicode="&#xc0;" glyph-name="Agrave" horiz-adv-x="600" d="M397 267L366 367Q349 422 333 476T301 588H297Q281 531 265 477T232 367L201 267H397ZM418 200H180L117 0H32L253 656H347L568 0H480L418 200ZM169 818H263L351 706H282L169 818Z" />
<glyph unicode="&#xc1;" glyph-name="Aacute" horiz-adv-x="600" d="M397 267L366 367Q349 422 333 476T301 588H297Q281 531 265 477T232 367L201 267H397ZM418 200H180L117 0H32L253 656H347L568 0H480L418 200ZM318 706H249L337 818H431L318 706Z" />
<glyph unicode="&#xc2;" glyph-name="Acircumflex" horiz-adv-x="600" d="M397 267L366 367Q349 422 333 476T301 588H297Q281 531 265 477T232 367L201 267H397ZM418 200H180L117 0H32L253 656H347L568 0H480L418 200ZM164 706L260 818H340L436 706H369L302 774H298L231
706H164Z" />
<glyph unicode="&#xc3;" glyph-name="Atilde" horiz-adv-x="600" d="M397 267L366 367Q349 422 333 476T301 588H297Q281 531 265 477T232 367L201 267H397ZM418 200H180L117 0H32L253 656H347L568 0H480L418 200ZM360 711Q340 711 324 719T295 737T268 755T241
763Q227 763 216 750T201 711H155Q160 758 182 788T240 819Q260 819 276 811T305 793T332 775T359 767Q373 767 384 780T399 819H445Q440 773 418 742T360 711Z" />
<glyph unicode="&#xc4;" glyph-name="Adieresis" horiz-adv-x="600" d="M397 267L366 367Q349 422 333 476T301 588H297Q281 531 265 477T232 367L201 267H397ZM418 200H180L117 0H32L253 656H347L568 0H480L418 200ZM214 715Q192 715 179 729T165 764Q165 786
178 799T214 813Q235 813 249 800T263 764Q263 743 249 729T214 715ZM386 715Q365 715 351 729T337 764Q337 786 351 799T386 813Q408 813 421 800T435 764Q435 743 422 729T386 715Z" />
<glyph unicode="&#xc5;" glyph-name="Aring" horiz-adv-x="600" d="M397 267L366 367Q349 422 333 476T301 588H297Q281 531 265 477T232 367L201 267H397ZM418 200H180L117 0H32L253 656H347L568 0H480L418 200ZM300 699Q259 699 233 722T207 787Q207 827 233
851T300 875Q340 875 366 851T393 787Q393 746 367 723T300 699ZM300 735Q319 735 333 748T347 787Q347 810 333 824T300 838Q280 838 266 824T252 787Q252 762 266 749T300 735Z" />
<glyph unicode="&#xc6;" glyph-name="AE" horiz-adv-x="600" d="M317 258V590H314Q294 536 273 484T231 377L185 258H317ZM591 71V0H317V191H159L86 0H-1L259 656H582V586H393V381H540V310H393V71H591Z" />
<glyph unicode="&#xc7;" glyph-name="Ccedilla" horiz-adv-x="600" d="M66 328Q66 407 87 470T148 577T241 644T359 668Q419 668 464 644T538 588L491 535Q465 562 433 578T359 595Q312 595 274 577T208 524T167 440T152 330Q152 268 166 219T208 134T273 80T359
61Q404 61 439 80T506 134L554 83Q515 38 466 13T354 -12Q292 -12 240 11T149 77T88 184T66 328ZM322 3H376L351 -50Q375 -58 392 -74T410 -121Q410 -143 398 -159T366 -186T320 -203T265 -213L257 -172Q297 -167 321 -156T346 -124Q346 -104 330 -94T282 -75L322
3Z" />
<glyph unicode="&#xc8;" glyph-name="Egrave" horiz-adv-x="600" d="M115 656H520V586H199V380H470V309H199V71H530V0H115V656ZM200 818H294L382 706H313L200 818Z" />
<glyph unicode="&#xc9;" glyph-name="Eacute" horiz-adv-x="600" d="M115 656H520V586H199V380H470V309H199V71H530V0H115V656ZM349 706H280L368 818H462L349 706Z" />
<glyph unicode="&#xca;" glyph-name="Ecircumflex" horiz-adv-x="600" d="M115 656H520V586H199V380H470V309H199V71H530V0H115V656ZM195 706L291 818H371L467 706H400L333 774H329L262 706H195Z" />
<glyph unicode="&#xcb;" glyph-name="Edieresis" horiz-adv-x="600" d="M115 656H520V586H199V380H470V309H199V71H530V0H115V656ZM245 715Q223 715 210 729T196 764Q196 786 209 799T245 813Q266 813 280 800T294 764Q294 743 280 729T245 715ZM417 715Q396 715
382 729T368 764Q368 786 382 799T417 813Q439 813 452 800T466 764Q466 743 453 729T417 715Z" />
<glyph unicode="&#xcc;" glyph-name="Igrave" horiz-adv-x="600" d="M95 71H258V586H95V656H505V586H342V71H505V0H95V71ZM169 818H263L351 706H282L169 818Z" />
<glyph unicode="&#xcd;" glyph-name="Iacute" horiz-adv-x="600" d="M95 71H258V586H95V656H505V586H342V71H505V0H95V71ZM318 706H249L337 818H431L318 706Z" />
<glyph unicode="&#xce;" glyph-name="Icircumflex" horiz-adv-x="600" d="M95 71H258V586H95V656H505V586H342V71H505V0H95V71ZM164 706L260 818H340L436 706H369L302 774H298L231 706H164Z" />
<glyph unicode="&#xcf;" glyph-name="Idieresis" horiz-adv-x="600" d="M95 71H258V586H95V656H505V586H342V71H505V0H95V71ZM214 715Q192 715 179 729T165 764Q165 786 178 799T214 813Q235 813 249 800T263 764Q263 743 249 729T214 715ZM386 715Q365 715 351
729T337 764Q337 786 351 799T386 813Q408 813 421 800T435 764Q435 743 422 729T386 715Z" />
<glyph unicode="&#xd0;" glyph-name="Eth" horiz-adv-x="600" d="M91 321H16V363L91 368V656H252Q400 656 477 572T555 331Q555 174 478 87T255 0H91V321ZM246 68Q358 68 413 137T469 331Q469 456 414 522T246 588H174V368H317V321H174V68H246Z" />
<glyph unicode="&#xd1;" glyph-name="Ntilde" horiz-adv-x="600" d="M83 656H168L381 242L447 108H449Q447 157 443 210T438 316V656H517V0H432L219 414L153 548H151Q153 497 157 446T162 343V0H83V656ZM366 711Q346 711 330 719T301 737T274 755T247 763Q233
763 222 750T207 711H161Q166 758 188 788T246 819Q266 819 282 811T311 793T338 775T365 767Q379 767 390 780T405 819H451Q446 773 424 742T366 711Z" />
<glyph unicode="&#xd2;" glyph-name="Ograve" horiz-adv-x="600" d="M300 -12Q244 -12 198 12T119 80T67 188T48 331Q48 410 66 472T118 578T198 645T300 668Q355 668 401 645T481 578T533 472T552 331Q552 252 534 189T482 81T402 12T300 -12ZM300 61Q337 61
368 80T420 134T454 219T466 331Q466 392 454 441T421 524T368 576T300 595Q262 595 232 577T180 524T146 441T134 331Q134 269 146 220T179 135T231 80T300 61ZM169 818H263L351 706H282L169 818Z" />
<glyph unicode="&#xd3;" glyph-name="Oacute" horiz-adv-x="600" d="M300 -12Q244 -12 198 12T119 80T67 188T48 331Q48 410 66 472T118 578T198 645T300 668Q355 668 401 645T481 578T533 472T552 331Q552 252 534 189T482 81T402 12T300 -12ZM300 61Q337 61
368 80T420 134T454 219T466 331Q466 392 454 441T421 524T368 576T300 595Q262 595 232 577T180 524T146 441T134 331Q134 269 146 220T179 135T231 80T300 61ZM318 706H249L337 818H431L318 706Z" />
<glyph unicode="&#xd4;" glyph-name="Ocircumflex" horiz-adv-x="600" d="M300 -12Q244 -12 198 12T119 80T67 188T48 331Q48 410 66 472T118 578T198 645T300 668Q355 668 401 645T481 578T533 472T552 331Q552 252 534 189T482 81T402 12T300 -12ZM300 61Q337
61 368 80T420 134T454 219T466 331Q466 392 454 441T421 524T368 576T300 595Q262 595 232 577T180 524T146 441T134 331Q134 269 146 220T179 135T231 80T300 61ZM164 706L260 818H340L436 706H369L302 774H298L231 706H164Z" />
<glyph unicode="&#xd5;" glyph-name="Otilde" horiz-adv-x="600" d="M300 -12Q244 -12 198 12T119 80T67 188T48 331Q48 410 66 472T118 578T198 645T300 668Q355 668 401 645T481 578T533 472T552 331Q552 252 534 189T482 81T402 12T300 -12ZM300 61Q337 61
368 80T420 134T454 219T466 331Q466 392 454 441T421 524T368 576T300 595Q262 595 232 577T180 524T146 441T134 331Q134 269 146 220T179 135T231 80T300 61ZM360 711Q340 711 324 719T295 737T268 755T241 763Q227 763 216 750T201 711H155Q160 758 182 788T240
819Q260 819 276 811T305 793T332 775T359 767Q373 767 384 780T399 819H445Q440 773 418 742T360 711Z" />
<glyph unicode="&#xd6;" glyph-name="Odieresis" horiz-adv-x="600" d="M300 -12Q244 -12 198 12T119 80T67 188T48 331Q48 410 66 472T118 578T198 645T300 668Q355 668 401 645T481 578T533 472T552 331Q552 252 534 189T482 81T402 12T300 -12ZM300 61Q337
61 368 80T420 134T454 219T466 331Q466 392 454 441T421 524T368 576T300 595Q262 595 232 577T180 524T146 441T134 331Q134 269 146 220T179 135T231 80T300 61ZM214 715Q192 715 179 729T165 764Q165 786 178 799T214 813Q235 813 249 800T263 764Q263 743
249 729T214 715ZM386 715Q365 715 351 729T337 764Q337 786 351 799T386 813Q408 813 421 800T435 764Q435 743 422 729T386 715Z" />
<glyph unicode="&#xd7;" glyph-name="multiply" horiz-adv-x="600" d="M102 171L256 330L102 488L146 533L300 374L454 533L498 488L344 330L498 171L454 126L300 286L146 126L102 171Z" />
<glyph unicode="&#xd8;" glyph-name="Oslash" horiz-adv-x="600" d="M192 116Q213 90 240 76T300 61Q337 61 368 80T420 134T454 219T466 331Q466 420 441 484L192 116ZM410 540Q389 566 361 580T300 595Q262 595 232 577T180 524T146 441T134 331Q134 236 161
172L410 540ZM493 561Q522 518 537 461T552 331Q552 252 534 189T482 81T402 12T300 -12Q210 -12 146 49L93 -30L45 2L108 95Q79 140 64 199T48 331Q48 410 66 472T118 578T198 645T300 668Q392 668 455 607L509 686L556 654L493 561Z" />
<glyph unicode="&#xd9;" glyph-name="Ugrave" horiz-adv-x="600" d="M79 656H163V246Q163 195 173 160T202 103T246 71T301 61Q331 61 356 71T400 102T429 159T440 246V656H521V248Q521 177 505 128T459 48T390 2T301 -12Q253 -12 212 2T142 47T96 128T79 248V656ZM169
818H263L351 706H282L169 818Z" />
<glyph unicode="&#xda;" glyph-name="Uacute" horiz-adv-x="600" d="M79 656H163V246Q163 195 173 160T202 103T246 71T301 61Q331 61 356 71T400 102T429 159T440 246V656H521V248Q521 177 505 128T459 48T390 2T301 -12Q253 -12 212 2T142 47T96 128T79 248V656ZM318
706H249L337 818H431L318 706Z" />
<glyph unicode="&#xdb;" glyph-name="Ucircumflex" horiz-adv-x="600" d="M79 656H163V246Q163 195 173 160T202 103T246 71T301 61Q331 61 356 71T400 102T429 159T440 246V656H521V248Q521 177 505 128T459 48T390 2T301 -12Q253 -12 212 2T142 47T96 128T79
248V656ZM164 706L260 818H340L436 706H369L302 774H298L231 706H164Z" />
<glyph unicode="&#xdc;" glyph-name="Udieresis" horiz-adv-x="600" d="M79 656H163V246Q163 195 173 160T202 103T246 71T301 61Q331 61 356 71T400 102T429 159T440 246V656H521V248Q521 177 505 128T459 48T390 2T301 -12Q253 -12 212 2T142 47T96 128T79 248V656ZM214
715Q192 715 179 729T165 764Q165 786 178 799T214 813Q235 813 249 800T263 764Q263 743 249 729T214 715ZM386 715Q365 715 351 729T337 764Q337 786 351 799T386 813Q408 813 421 800T435 764Q435 743 422 729T386 715Z" />
<glyph unicode="&#xdd;" glyph-name="Yacute" horiz-adv-x="600" d="M258 234L38 656H126L225 461Q244 423 262 386T300 308H304Q324 348 343 386T381 462L476 656H562L342 234V0H258V234ZM318 706H249L337 818H431L318 706Z" />
<glyph unicode="&#xde;" glyph-name="Thorn" horiz-adv-x="600" d="M101 656H185V546H303Q357 546 402 536T478 503T527 444T545 353Q545 301 528 263T478 199T402 162T303 150H185V0H101V656ZM292 218Q379 218 420 250T462 353Q462 424 420 451T292 478H185V218H292Z" />
<glyph unicode="&#xdf;" glyph-name="germandbls" horiz-adv-x="600" d="M88 519Q88 565 102 603T142 668T205 709T289 724Q329 724 359 712T411 680T442 633T453 576Q453 538 439 512T408 463T377 421T363 374Q363 350 378 334T415 305T463 278T512 247T549 203T564
137Q564 105 553 78T520 31T468 0T401 -12Q359 -12 324 0T257 33L290 91Q318 71 344 62T399 52Q441 52 463 75T486 130Q486 159 471 178T434 211T385 238T337 267T299 306T284 364Q284 398 298 422T329 469T360 515T374 571Q374 608 352 632T288 657Q233 657 202
620T170 507V0H88V519Z" />
<glyph unicode="&#xe0;" glyph-name="agrave" horiz-adv-x="600" d="M81 126Q81 167 100 197T162 250T272 286T433 308Q432 333 425 355T403 393T364 420T304 430Q256 430 212 412T134 372L102 428Q120 440 144 452T196 475T255 491T318 498Q418 498 466 444T515
298V0H448L441 66H438Q397 34 348 11T246 -12Q212 -12 182 -3T130 24T94 67T81 126ZM161 132Q161 111 170 97T193 73T227 59T268 54Q310 54 350 72T433 126V254Q355 248 303 237T219 211T174 176T161 132ZM199 721H289L379 573H316L199 721Z" />
<glyph unicode="&#xe1;" glyph-name="aacute" horiz-adv-x="600" d="M81 126Q81 167 100 197T162 250T272 286T433 308Q432 333 425 355T403 393T364 420T304 430Q256 430 212 412T134 372L102 428Q120 440 144 452T196 475T255 491T318 498Q418 498 466 444T515
298V0H448L441 66H438Q397 34 348 11T246 -12Q212 -12 182 -3T130 24T94 67T81 126ZM161 132Q161 111 170 97T193 73T227 59T268 54Q310 54 350 72T433 126V254Q355 248 303 237T219 211T174 176T161 132ZM312 573H249L339 721H429L312 573Z" />
<glyph unicode="&#xe2;" glyph-name="acircumflex" horiz-adv-x="600" d="M81 126Q81 167 100 197T162 250T272 286T433 308Q432 333 425 355T403 393T364 420T304 430Q256 430 212 412T134 372L102 428Q120 440 144 452T196 475T255 491T318 498Q418 498 466
444T515 298V0H448L441 66H438Q397 34 348 11T246 -12Q212 -12 182 -3T130 24T94 67T81 126ZM161 132Q161 111 170 97T193 73T227 59T268 54Q310 54 350 72T433 126V254Q355 248 303 237T219 211T174 176T161 132ZM279 721H349L446 573H383L316 672H312L245 573H182L279
721Z" />
<glyph unicode="&#xe3;" glyph-name="atilde" horiz-adv-x="600" d="M81 126Q81 167 100 197T162 250T272 286T433 308Q432 333 425 355T403 393T364 420T304 430Q256 430 212 412T134 372L102 428Q120 440 144 452T196 475T255 491T318 498Q418 498 466 444T515
298V0H448L441 66H438Q397 34 348 11T246 -12Q212 -12 182 -3T130 24T94 67T81 126ZM161 132Q161 111 170 97T193 73T227 59T268 54Q310 54 350 72T433 126V254Q355 248 303 237T219 211T174 176T161 132ZM172 579Q177 627 198 657T260 688Q278 688 293 680T320
661T345 643T369 634Q400 634 409 688H456Q451 641 430 610T368 579Q350 579 335 587T308 606T283 625T259 634Q228 634 219 579H172V579Z" />
<glyph unicode="&#xe4;" glyph-name="adieresis" horiz-adv-x="600" d="M81 126Q81 167 100 197T162 250T272 286T433 308Q432 333 425 355T403 393T364 420T304 430Q256 430 212 412T134 372L102 428Q120 440 144 452T196 475T255 491T318 498Q418 498 466 444T515
298V0H448L441 66H438Q397 34 348 11T246 -12Q212 -12 182 -3T130 24T94 67T81 126ZM161 132Q161 111 170 97T193 73T227 59T268 54Q310 54 350 72T433 126V254Q355 248 303 237T219 211T174 176T161 132ZM218 588Q194 588 179 604T164 643Q164 666 179 682T218
698Q241 698 256 682T272 643Q272 620 257 604T218 588ZM410 588Q387 588 372 604T356 643Q356 666 371 682T410 698Q434 698 449 682T464 643Q464 620 449 604T410 588Z" />
<glyph unicode="&#xe5;" glyph-name="aring" horiz-adv-x="600" d="M81 126Q81 167 100 197T162 250T272 286T433 308Q432 333 425 355T403 393T364 420T304 430Q256 430 212 412T134 372L102 428Q120 440 144 452T196 475T255 491T318 498Q418 498 466 444T515
298V0H448L441 66H438Q397 34 348 11T246 -12Q212 -12 182 -3T130 24T94 67T81 126ZM161 132Q161 111 170 97T193 73T227 59T268 54Q310 54 350 72T433 126V254Q355 248 303 237T219 211T174 176T161 132ZM314 542Q273 542 247 567T221 635Q221 677 247 702T314
727Q355 727 381 702T407 635Q407 593 381 568T314 542ZM314 579Q334 579 348 594T362 635Q362 660 348 675T314 690Q294 690 280 675T266 635Q266 609 280 594T314 579Z" />
<glyph unicode="&#xe6;" glyph-name="ae" horiz-adv-x="600" d="M17 129Q17 202 79 245T265 308Q264 362 245 396T178 431Q152 431 120 419T64 390L33 446Q63 466 103 482T188 498Q236 498 265 470T309 400Q333 447 367 472T450 498Q487 498 514 480T560 432T588
361T597 276Q597 262 596 249T593 223H335Q338 147 368 101T457 54Q485 54 508 63T553 85L582 31Q557 14 525 1T454 -12Q401 -12 365 12T305 79Q264 34 225 11T147 -12Q87 -12 52 25T17 129ZM528 278Q528 309 524 337T510 386T484 420T443 433Q396 433 368 392T334
278H528ZM93 133Q93 94 113 74T167 54Q193 54 224 72T281 125Q273 147 270 173T265 229L264 254Q172 238 133 209T93 133Z" />
<glyph unicode="&#xe7;" glyph-name="ccedilla" horiz-adv-x="600" d="M80 242Q80 303 101 350T160 431T246 481T351 498Q411 498 454 477T528 427L487 374Q457 400 425 415T354 430Q312 430 277 417T218 378T179 319T165 242Q165 200 178 166T216 108T275 70T352
56Q397 56 434 73T503 117L539 64Q499 28 450 8T346 -12Q289 -12 241 5T156 54T100 134T80 242ZM323 3H376L351 -50Q375 -58 392 -74T410 -121Q410 -143 398 -159T366 -186T320 -203T265 -213L257 -172Q297 -167 321 -156T346 -124Q346 -104 330 -94T283 -75L323
3Z" />
<glyph unicode="&#xe8;" glyph-name="egrave" horiz-adv-x="600" d="M69 242Q69 302 90 349T145 430T224 480T316 498Q368 498 409 482T478 435T522 363T537 270Q537 257 537 245T534 223H154Q155 184 169 153T208 100T266 66T340 54Q383 54 418 66T488 99L517
45Q481 22 435 5T330 -12Q276 -12 229 5T146 55T90 135T69 242ZM461 282Q461 355 423 394T317 433Q287 433 260 423T210 394T173 346T153 282H461ZM200 721H290L380 573H317L200 721Z" />
<glyph unicode="&#xe9;" glyph-name="eacute" horiz-adv-x="600" d="M69 242Q69 302 90 349T145 430T224 480T316 498Q368 498 409 482T478 435T522 363T537 270Q537 257 537 245T534 223H154Q155 184 169 153T208 100T266 66T340 54Q383 54 418 66T488 99L517
45Q481 22 435 5T330 -12Q276 -12 229 5T146 55T90 135T69 242ZM461 282Q461 355 423 394T317 433Q287 433 260 423T210 394T173 346T153 282H461ZM313 573H250L340 721H430L313 573Z" />
<glyph unicode="&#xea;" glyph-name="ecircumflex" horiz-adv-x="600" d="M69 242Q69 302 90 349T145 430T224 480T316 498Q368 498 409 482T478 435T522 363T537 270Q537 257 537 245T534 223H154Q155 184 169 153T208 100T266 66T340 54Q383 54 418 66T488 99L517
45Q481 22 435 5T330 -12Q276 -12 229 5T146 55T90 135T69 242ZM461 282Q461 355 423 394T317 433Q287 433 260 423T210 394T173 346T153 282H461ZM280 721H350L447 573H384L317 672H313L246 573H183L280 721Z" />
<glyph unicode="&#xeb;" glyph-name="edieresis" horiz-adv-x="600" d="M69 242Q69 302 90 349T145 430T224 480T316 498Q368 498 409 482T478 435T522 363T537 270Q537 257 537 245T534 223H154Q155 184 169 153T208 100T266 66T340 54Q383 54 418 66T488 99L517
45Q481 22 435 5T330 -12Q276 -12 229 5T146 55T90 135T69 242ZM461 282Q461 355 423 394T317 433Q287 433 260 423T210 394T173 346T153 282H461ZM219 588Q195 588 180 604T165 643Q165 666 180 682T219 698Q242 698 257 682T273 643Q273 620 258 604T219 588ZM411
588Q388 588 373 604T357 643Q357 666 372 682T411 698Q435 698 450 682T465 643Q465 620 450 604T411 588Z" />
<glyph unicode="&#xec;" glyph-name="igrave" horiz-adv-x="600" d="M90 486H398V0H316V419H90V486ZM233 721H323L413 573H350L233 721Z" />
<glyph unicode="&#xed;" glyph-name="iacute" horiz-adv-x="600" d="M90 486H398V0H316V419H90V486ZM346 573H283L373 721H463L346 573Z" />
<glyph unicode="&#xee;" glyph-name="icircumflex" horiz-adv-x="600" d="M90 486H398V0H316V419H90V486ZM313 721H383L480 573H417L350 672H346L279 573H216L313 721Z" />
<glyph unicode="&#xef;" glyph-name="idieresis" horiz-adv-x="600" d="M90 486H398V0H316V419H90V486ZM252 588Q228 588 213 604T198 643Q198 666 213 682T252 698Q275 698 290 682T306 643Q306 620 291 604T252 588ZM444 588Q421 588 406 604T390 643Q390 666
405 682T444 698Q468 698 483 682T498 643Q498 620 483 604T444 588Z" />
<glyph unicode="&#xf0;" glyph-name="eth" horiz-adv-x="600" d="M300 56Q340 56 369 70T418 111T447 174T457 254Q457 265 457 276T456 298Q421 345 380 364T300 383Q260 383 230 371T179 337T148 286T137 222Q137 184 150 154T185 102T237 68T300 56ZM390 610Q456
549 496 464T536 257Q536 197 520 148T472 63T397 8T298 -12Q251 -12 208 4T132 50T80 124T60 222Q60 273 77 314T124 385T196 431T288 447Q335 447 377 426T447 367Q433 436 403 486T326 577L176 500L153 541L285 609Q259 628 229 644T165 678L203 730Q243 711
280 690T351 643L486 712L509 671L390 610Z" />
<glyph unicode="&#xf1;" glyph-name="ntilde" horiz-adv-x="600" d="M93 486H161L168 403H172Q210 444 254 471T355 498Q442 498 482 449T523 302V0H441V291Q441 360 415 393T329 427Q307 427 289 422T252 405T215 378T175 339V0H93V486ZM176 579Q181 627 202
657T264 688Q282 688 297 680T324 661T349 643T373 634Q404 634 413 688H460Q455 641 434 610T372 579Q354 579 339 587T312 606T287 625T263 634Q232 634 223 579H176V579Z" />
<glyph unicode="&#xf2;" glyph-name="ograve" horiz-adv-x="600" d="M60 242Q60 303 79 350T132 431T208 481T300 498Q348 498 391 481T468 431T520 351T540 242Q540 182 521 135T468 55T392 5T300 -12Q252 -12 209 5T132 54T80 134T60 242ZM145 242Q145 200 156
166T187 108T236 70T300 56Q335 56 363 69T412 107T444 166T455 242Q455 284 444 318T413 378T364 416T300 430Q265 430 237 417T188 378T156 319T145 242ZM185 721H275L365 573H302L185 721Z" />
<glyph unicode="&#xf3;" glyph-name="oacute" horiz-adv-x="600" d="M60 242Q60 303 79 350T132 431T208 481T300 498Q348 498 391 481T468 431T520 351T540 242Q540 182 521 135T468 55T392 5T300 -12Q252 -12 209 5T132 54T80 134T60 242ZM145 242Q145 200 156
166T187 108T236 70T300 56Q335 56 363 69T412 107T444 166T455 242Q455 284 444 318T413 378T364 416T300 430Q265 430 237 417T188 378T156 319T145 242ZM298 573H235L325 721H415L298 573Z" />
<glyph unicode="&#xf4;" glyph-name="ocircumflex" horiz-adv-x="600" d="M60 242Q60 303 79 350T132 431T208 481T300 498Q348 498 391 481T468 431T520 351T540 242Q540 182 521 135T468 55T392 5T300 -12Q252 -12 209 5T132 54T80 134T60 242ZM145 242Q145
200 156 166T187 108T236 70T300 56Q335 56 363 69T412 107T444 166T455 242Q455 284 444 318T413 378T364 416T300 430Q265 430 237 417T188 378T156 319T145 242ZM265 721H335L432 573H369L302 672H298L231 573H168L265 721Z" />
<glyph unicode="&#xf5;" glyph-name="otilde" horiz-adv-x="600" d="M60 242Q60 303 79 350T132 431T208 481T300 498Q348 498 391 481T468 431T520 351T540 242Q540 182 521 135T468 55T392 5T300 -12Q252 -12 209 5T132 54T80 134T60 242ZM145 242Q145 200 156
166T187 108T236 70T300 56Q335 56 363 69T412 107T444 166T455 242Q455 284 444 318T413 378T364 416T300 430Q265 430 237 417T188 378T156 319T145 242ZM158 579Q163 627 184 657T246 688Q264 688 279 680T306 661T331 643T355 634Q386 634 395 688H442Q437
641 416 610T354 579Q336 579 321 587T294 606T269 625T245 634Q214 634 205 579H158V579Z" />
<glyph unicode="&#xf6;" glyph-name="odieresis" horiz-adv-x="600" d="M60 242Q60 303 79 350T132 431T208 481T300 498Q348 498 391 481T468 431T520 351T540 242Q540 182 521 135T468 55T392 5T300 -12Q252 -12 209 5T132 54T80 134T60 242ZM145 242Q145 200
156 166T187 108T236 70T300 56Q335 56 363 69T412 107T444 166T455 242Q455 284 444 318T413 378T364 416T300 430Q265 430 237 417T188 378T156 319T145 242ZM204 588Q180 588 165 604T150 643Q150 666 165 682T204 698Q227 698 242 682T258 643Q258 620 243
604T204 588ZM396 588Q373 588 358 604T342 643Q342 666 357 682T396 698Q420 698 435 682T450 643Q450 620 435 604T396 588Z" />
<glyph unicode="&#xf7;" glyph-name="divide" horiz-adv-x="600" d="M300 456Q277 456 262 471T246 510Q246 533 261 548T300 563Q323 563 338 548T354 510Q354 486 339 471T300 456ZM246 150Q246 173 261 188T300 203Q323 203 338 188T354 150Q354 126 339 111T300
96Q277 96 262 111T246 150ZM85 361H515V299H85V361Z" />
<glyph unicode="&#xf8;" glyph-name="oslash" horiz-adv-x="600" d="M201 92Q242 54 300 54Q335 54 363 68T412 106T444 165T455 242Q455 275 448 304T428 356L201 92ZM398 394Q379 412 354 422T300 432Q265 432 237 418T188 379T156 319T145 242Q145 209 152
181T172 130L398 394ZM481 418Q508 386 524 342T540 242Q540 182 521 135T468 55T392 5T300 -12Q217 -12 154 36L103 -23L66 6L119 68Q92 100 76 144T60 242Q60 303 79 350T132 431T208 481T300 498Q383 498 446 450L497 509L534 480L481 418Z" />
<glyph unicode="&#xf9;" glyph-name="ugrave" horiz-adv-x="600" d="M505 0H438L431 85H427Q390 42 347 15T246 -12Q158 -12 118 37T77 184V486H160V195Q160 126 185 93T272 59Q314 59 348 80T423 149V486H505V0ZM437 721H527L617 573H554L437 721Z" />
<glyph unicode="&#xfa;" glyph-name="uacute" horiz-adv-x="600" d="M505 0H438L431 85H427Q390 42 347 15T246 -12Q158 -12 118 37T77 184V486H160V195Q160 126 185 93T272 59Q314 59 348 80T423 149V486H505V0ZM550 573H487L577 721H667L550 573Z" />
<glyph unicode="&#xfb;" glyph-name="ucircumflex" horiz-adv-x="600" d="M505 0H438L431 85H427Q390 42 347 15T246 -12Q158 -12 118 37T77 184V486H160V195Q160 126 185 93T272 59Q314 59 348 80T423 149V486H505V0ZM517 721H587L684 573H621L554 672H550L483
573H420L517 721Z" />
<glyph unicode="&#xfc;" glyph-name="udieresis" horiz-adv-x="600" d="M505 0H438L431 85H427Q390 42 347 15T246 -12Q158 -12 118 37T77 184V486H160V195Q160 126 185 93T272 59Q314 59 348 80T423 149V486H505V0ZM456 588Q432 588 417 604T402 643Q402 666
417 682T456 698Q479 698 494 682T510 643Q510 620 495 604T456 588ZM648 588Q625 588 610 604T594 643Q594 666 609 682T648 698Q672 698 687 682T702 643Q702 620 687 604T648 588Z" />
<glyph unicode="&#xfd;" glyph-name="yacute" horiz-adv-x="600" d="M84 -134Q94 -137 105 -139T128 -141Q179 -141 211 -112T261 -37L276 -1L49 486H132L251 217Q265 185 280 148T311 76H315Q328 111 341 147T367 217L473 486H551L337 -40Q323 -76 305 -107T262
-160T205 -196T131 -209Q95 -209 67 -199L84 -134V-134ZM302 573H239L329 721H419L302 573Z" />
<glyph unicode="&#xfe;" glyph-name="thorn" horiz-adv-x="600" d="M175 -205H93V712H175V511L173 424Q208 458 251 478T337 498Q386 498 424 481T487 431T526 353T540 250Q540 188 522 140T473 57T402 6T319 -12Q283 -12 245 5T174 51L175 -41V-205ZM175 114Q210
83 244 70T305 57Q337 57 364 70T412 108T443 169T455 250Q455 330 423 379T317 429Q285 429 249 412T175 356V114Z" />
<glyph unicode="&#xff;" glyph-name="ydieresis" horiz-adv-x="600" d="M84 -134Q94 -137 105 -139T128 -141Q179 -141 211 -112T261 -37L276 -1L49 486H132L251 217Q265 185 280 148T311 76H315Q328 111 341 147T367 217L473 486H551L337 -40Q323 -76 305 -107T262
-160T205 -196T131 -209Q95 -209 67 -199L84 -134V-134ZM208 588Q184 588 169 604T154 643Q154 666 169 682T208 698Q231 698 246 682T262 643Q262 620 247 604T208 588ZM400 588Q377 588 362 604T346 643Q346 666 361 682T400 698Q424 698 439 682T454 643Q454
620 439 604T400 588Z" />
<glyph unicode="&#x2013;" glyph-name="endash" horiz-adv-x="600" d="M80 288H520V216H80V288Z" />
<glyph unicode="&#x2014;" glyph-name="emdash" horiz-adv-x="600" d="M20 288H580V216H20V288Z" />
<glyph unicode="&#x2018;" glyph-name="quoteleft" horiz-adv-x="600" d="M380 651Q333 624 307 585T277 493Q289 499 303 499Q334 499 353 479T373 427Q373 392 352 371T299 350Q260 350 235 381T209 470Q209 545 247 604T353 699L380 651Z" />
<glyph unicode="&#x2019;" glyph-name="quoteright" horiz-adv-x="600" d="M217 398Q265 424 291 463T321 556Q309 550 295 550Q263 550 244 569T224 621Q224 656 245 677T298 699Q338 699 363 667T388 578Q388 503 350 444T245 350L217 398Z" />
<glyph unicode="&#x201a;" glyph-name="quotesinglbase" horiz-adv-x="600" d="M217 -177Q265 -151 291 -112T321 -19Q309 -25 295 -25Q263 -25 244 -6T224 46Q224 81 245 102T298 124Q338 124 363 92T388 3Q388 -72 350 -131T245 -225L217 -177Z" />
<glyph unicode="&#x201c;" glyph-name="quotedblleft" horiz-adv-x="600" d="M522 651Q475 624 449 585T419 493Q431 499 445 499Q476 499 495 479T515 427Q515 392 494 371T441 350Q402 350 377 381T351 470Q351 545 389 604T495 699L522 651ZM495 651Q448 624
422 585T392 493Q404 499 418 499Q449 499 468 479T488 427Q488 392 467 371T414 350Q375 350 350 381T324 470Q324 545 362 604T468 699L495 651Z" />
<glyph unicode="&#x201d;" glyph-name="quotedblright" horiz-adv-x="600" d="M359 398Q407 424 433 463T463 556Q451 550 437 550Q405 550 386 569T366 621Q366 656 387 677T440 699Q480 699 505 667T530 578Q530 503 492 444T387 350L359 398ZM332 398Q380 424
406 463T436 556Q424 550 410 550Q378 550 359 569T339 621Q339 656 360 677T413 699Q453 699 478 667T503 578Q503 503 465 444T360 350L332 398Z" />
<glyph unicode="&#x201e;" glyph-name="quotedblbase" horiz-adv-x="600" d="M103 -177Q151 -151 177 -112T207 -19Q195 -25 181 -25Q149 -25 130 -6T110 46Q110 81 131 102T184 124Q224 124 249 92T274 3Q274 -72 236 -131T131 -225L103 -177ZM332 -177Q380 -151
406 -112T436 -19Q424 -25 410 -25Q378 -25 359 -6T339 46Q339 81 360 102T413 124Q453 124 478 92T503 3Q503 -72 465 -131T360 -225L332 -177Z" />
<glyph unicode="&#x2022;" glyph-name="bullet" horiz-adv-x="600" d="M300 115Q270 115 243 125T196 155T163 202T151 262Q151 295 163 322T195 368T243 398T300 409Q330 409 357 399T404 369T437 322T449 262Q449 229 437 202T405 156T357 126T300 115Z" />
<glyph unicode="&#x2039;" glyph-name="guilsinglleft" horiz-adv-x="600" d="M197 212V292L350 452L389 417L262 252L389 86L350 52L197 212Z" />
<glyph unicode="&#x203a;" glyph-name="guilsinglright" horiz-adv-x="600" d="M338 252L211 417L250 452L403 292V212L250 52L211 86L338 252Z" />
</font>
</defs>
</svg>
