  0
SECTION
  2
HEADER
  9
$ACADVER
  1
AC1009
  9
$DWGCODEPAGE
  3
ansi_1252
  9
$INSBASE
 10
0.0
 20
0.0
 30
0.0
  9
$EXTMIN
 10
2.795328707669729
 20
2.795328707669729
 30
0.0
  9
$EXTMAX
 10
108.9006595460606
 20
127.0170494277905
 30
0.0
  9
$LIMMIN
 10
0.0
 20
0.0
  9
$LIMMAX
 10
12.0
 20
9.0
  9
$ORTHOMODE
 70
     0
  9
$REGENMODE
 70
     1
  9
$FILLMODE
 70
     1
  9
$QTEXTMODE
 70
     0
  9
$MIRRTEXT
 70
     1
  9
$DRAGMODE
 70
     2
  9
$LTSCALE
 40
1.0
  9
$OSMODE
 70
    37
  9
$ATTMODE
 70
     1
  9
$TEXTSIZE
 40
0.2
  9
$TRACEWID
 40
0.05
  9
$TEXTSTYLE
  7
STANDARD
  9
$CLAYER
  8
DEFAULT
  9
$CELTYPE
  6
BYLAYER
  9
$CECOLOR
 62
   256
  9
$DIMSCALE
 40
1.0
  9
$DIMASZ
 40
0.18
  9
$DIMEXO
 40
0.0625
  9
$DIMDLI
 40
0.38
  9
$DIMRND
 40
0.0
  9
$DIMDLE
 40
0.0
  9
$DIMEXE
 40
0.18
  9
$DIMTP
 40
0.0
  9
$DIMTM
 40
0.0
  9
$DIMTXT
 40
0.18
  9
$DIMCEN
 40
0.09
  9
$DIMTSZ
 40
0.0
  9
$DIMTOL
 70
     0
  9
$DIMLIM
 70
     0
  9
$DIMTIH
 70
     1
  9
$DIMTOH
 70
     1
  9
$DIMSE1
 70
     0
  9
$DIMSE2
 70
     0
  9
$DIMTAD
 70
     0
  9
$DIMZIN
 70
     0
  9
$DIMBLK
  1

  9
$DIMASO
 70
     1
  9
$DIMSHO
 70
     1
  9
$DIMPOST
  1

  9
$DIMAPOST
  1

  9
$DIMALT
 70
     0
  9
$DIMALTD
 70
     2
  9
$DIMALTF
 40
25.4
  9
$DIMLFAC
 40
1.0
  9
$DIMTOFL
 70
     0
  9
$DIMTVP
 40
0.0
  9
$DIMTIX
 70
     0
  9
$DIMSOXD
 70
     0
  9
$DIMSAH
 70
     0
  9
$DIMBLK1
  1

  9
$DIMBLK2
  1

  9
$DIMSTYLE
  2
STANDARD
  9
$DIMCLRD
 70
     0
  9
$DIMCLRE
 70
     0
  9
$DIMCLRT
 70
     0
  9
$DIMTFAC
 40
1.0
  9
$DIMGAP
 40
0.09
  9
$LUNITS
 70
     2
  9
$LUPREC
 70
     3
  9
$SKETCHINC
 40
0.1
  9
$FILLETRAD
 40
0.5
  9
$AUNITS
 70
     0
  9
$AUPREC
 70
     0
  9
$MENU
  1
.
  9
$ELEVATION
 40
0.0
  9
$PELEVATION
 40
0.0
  9
$THICKNESS
 40
0.0
  9
$LIMCHECK
 70
     0
  9
$CHAMFERA
 40
0.0
  9
$CHAMFERB
 40
0.0
  9
$SKPOLY
 70
     0
  9
$TDCREATE
 40
2459632.840983866
  9
$TDUPDATE
 40
2459632.841003924
  9
$TDINDWG
 40
0.0000000116
  9
$TDUSRTIMER
 40
0.0000000116
  9
$USRTIMER
 70
     1
  9
$ANGBASE
 50
0.0
  9
$ANGDIR
 70
     0
  9
$PDMODE
 70
     0
  9
$PDSIZE
 40
0.0
  9
$PLINEWID
 40
0.0
  9
$COORDS
 70
     1
  9
$SPLFRAME
 70
     0
  9
$SPLINETYPE
 70
     6
  9
$SPLINESEGS
 70
     8
  9
$ATTDIA
 70
     0
  9
$ATTREQ
 70
     1
  9
$HANDLING
 70
     1
  9
$HANDSEED
  5
C87
  9
$SURFTAB1
 70
     6
  9
$SURFTAB2
 70
     6
  9
$SURFTYPE
 70
     6
  9
$SURFU
 70
     6
  9
$SURFV
 70
     6
  9
$UCSNAME
  2

  9
$UCSORG
 10
0.0
 20
0.0
 30
0.0
  9
$UCSXDIR
 10
1.0
 20
0.0
 30
0.0
  9
$UCSYDIR
 10
0.0
 20
1.0
 30
0.0
  9
$PUCSNAME
  2

  9
$PUCSORG
 10
0.0
 20
0.0
 30
0.0
  9
$PUCSXDIR
 10
1.0
 20
0.0
 30
0.0
  9
$PUCSYDIR
 10
0.0
 20
1.0
 30
0.0
  9
$USERI1
 70
     0
  9
$USERI2
 70
     0
  9
$USERI3
 70
     0
  9
$USERI4
 70
     0
  9
$USERI5
 70
     0
  9
$USERR1
 40
0.0
  9
$USERR2
 40
0.0
  9
$USERR3
 40
0.0
  9
$USERR4
 40
0.0
  9
$USERR5
 40
0.0
  9
$WORLDVIEW
 70
     1
  9
$SHADEDGE
 70
     3
  9
$SHADEDIF
 70
    70
  9
$TILEMODE
 70
     1
  9
$MAXACTVP
 70
    64
  9
$PLIMCHECK
 70
     0
  9
$PEXTMIN
 10
1.000000000000000E+20
 20
1.000000000000000E+20
 30
1.000000000000000E+20
  9
$PEXTMAX
 10
-1.000000000000000E+20
 20
-1.000000000000000E+20
 30
-1.000000000000000E+20
  9
$PLIMMIN
 10
0.0
 20
0.0
  9
$PLIMMAX
 10
12.0
 20
9.0
  9
$UNITMODE
 70
     0
  9
$VISRETAIN
 70
     1
  9
$PLINEGEN
 70
     0
  9
$PSLTSCALE
 70
     1
  0
ENDSEC
  0
SECTION
  2
TABLES
  0
TABLE
  2
VPORT
 70
     1
  0
VPORT
  2
*ACTIVE
 70
     0
 10
0.0
 20
0.0
 11
1.0
 21
1.0
 12
55.84799412686516
 22
64.90618906773014
 13
0.0
 23
0.0
 14
0.5
 24
0.5
 15
0.5
 25
0.5
 16
0.0
 26
0.0
 36
1.0
 17
0.0
 27
0.0
 37
0.0
 40
126.7061551345232
 41
0.8541608522510546
 42
50.0
 43
0.0
 44
0.0
 50
0.0
 51
0.0
 71
     0
 72
   100
 73
     1
 74
     3
 75
     0
 76
     0
 77
     0
 78
     0
  0
ENDTAB
  0
TABLE
  2
LTYPE
 70
     1
  0
LTYPE
  2
CONTINUOUS
 70
     0
  3
Solid line
 72
    65
 73
     0
 40
0.0
  0
ENDTAB
  0
TABLE
  2
LAYER
 70
     3
  0
LAYER
  2
0
 70
     0
 62
     7
  6
CONTINUOUS
  0
LAYER
  2
DEFAULT
 70
     0
 62
     7
  6
CONTINUOUS
  0
LAYER
  2
DEFPOINTS
 70
     0
 62
     7
  6
CONTINUOUS
  0
ENDTAB
  0
TABLE
  2
STYLE
 70
     2
  0
STYLE
  2
STANDARD
 70
     0
 40
0.0
 41
1.0
 50
0.0
 71
     0
 42
0.2
  3
txt
  4

  0
STYLE
  2
DEFAULT
 70
     0
 40
0.0
 41
1.0
 50
0.0
 71
     0
 42
0.2
  3

  4

  0
ENDTAB
  0
TABLE
  2
VIEW
 70
     0
  0
ENDTAB
  0
TABLE
  2
UCS
 70
     0
  0
ENDTAB
  0
TABLE
  2
APPID
 70
     1
  0
APPID
  2
ACAD
 70
     0
  0
ENDTAB
  0
TABLE
  2
DIMSTYLE
 70
     2
  0
DIMSTYLE
  2
STANDARD
 70
     0
  3

  4

  5

  6

  7

 40
1.0
 41
0.18
 42
0.0625
 43
0.38
 44
0.18
 45
0.0
 46
0.0
 47
0.0
 48
0.0
140
0.18
141
0.09
142
0.0
143
25.4
144
1.0
145
0.0
146
1.0
147
0.09
 71
     0
 72
     0
 73
     1
 74
     1
 75
     0
 76
     0
 77
     0
 78
     0
170
     0
171
     2
172
     0
173
     0
174
     0
175
     0
176
     0
177
     0
178
     0
  0
DIMSTYLE
  2
DEFAULT
 70
     0
  3

  4

  5

  6

  7

 40
1.0
 41
1.0
 42
0.5
 43
0.38
 44
0.5
 45
0.0
 46
0.0
 47
0.0
 48
0.0
140
1.0
141
0.5
142
0.0
143
25.4
144
1.0
145
0.0
146
1.0
147
0.25
 71
     0
 72
     0
 73
     0
 74
     1
 75
     0
 76
     0
 77
     1
 78
     1
170
     0
171
     2
172
     1
173
     0
174
     1
175
     0
176
     0
177
     0
178
     0
  0
ENDTAB
  0
ENDSEC
  0
SECTION
  2
BLOCKS
  0
BLOCK
  8
0
  2
$MODEL_SPACE
 70
     0
 10
0.0
 20
0.0
 30
0.0
  3
$MODEL_SPACE
  1

  0
ENDBLK
  5
21
  8
0
  0
BLOCK
 67
     1
  8
0
  2
$PAPER_SPACE
 70
     0
 10
0.0
 20
0.0
 30
0.0
  3
$PAPER_SPACE
  1

  0
ENDBLK
  5
1D
 67
     1
  8
0
  0
BLOCK
  8
0
  2
*D1
 70
     1
 10
0.0
 20
0.0
 30
0.0
  3
*D1
  1

  0
LINE
  5
C77
  8
DEFAULT
 62
     0
 10
24.30597505771635
 20
120.5271841974211
 30
0.0
 11
24.2150801193745
 21
126.1195895284343
 31
0.0
  0
LINE
  5
C78
  8
DEFAULT
 62
     0
 10
38.60677553525547
 20
120.7596191338583
 30
0.0
 11
38.51588059691363
 21
126.3520244648714
 31
0.0
  0
LINE
  5
C79
  8
DEFAULT
 62
     0
 10
25.22307362853748
 20
125.635906692802
 30
0.0
 11
37.52413822291
 21
125.8358393589205
 31
0.0
  0
SOLID
  5
C7A
  8
DEFAULT
 62
     0
 10
25.22036510601092
 20
125.8025513497325
 30
0.0
 11
25.22578215106405
 21
125.4692620358714
 31
0.0
 12
24.22320568695418
 22
125.6196555576426
 32
0.0
 13
24.22320568695418
 23
125.6196555576426
 33
0.0
  0
SOLID
  5
C7B
  8
DEFAULT
 62
     0
 10
37.52684674543656
 20
125.6691947019899
 30
0.0
 11
37.52142970038344
 21
126.002484015851
 31
0.0
 12
38.5240061644933
 22
125.8520904940798
 32
0.0
 13
38.5240061644933
 23
125.8520904940798
 33
0.0
  0
TEXT
  5
C7C
  8
DEFAULT
  6
CONTINUOUS
 62
     0
 10
29.15554984271373
 20
125.9498553548327
 30
0.0
 40
1.0
  1
14.30
 50
0.9311624465679662
  7
DEFAULT
  0
POINT
  5
C7D
  8
DEFPOINTS
 62
     0
 10
24.31410062529603
 20
120.0272502266295
 30
0.0
  0
POINT
  5
C7E
  8
DEFPOINTS
 62
     0
 10
38.61490110283515
 20
120.2596851630666
 30
0.0
  0
POINT
  5
C7F
  8
DEFPOINTS
 62
     0
 10
38.5240061644933
 20
125.8520904940798
 30
0.0
  0
ENDBLK
  5
C76
  8
0
  0
ENDSEC
  0
SECTION
  2
ENTITIES
  0
LINE
  5
6F
  8
DEFAULT
 62
     7
 10
91.61367370267818
 20
57.15844087062627
 30
0.0
 11
91.37597516228446
 21
52.709967064687
 31
0.0
  0
LINE
  5
70
  8
DEFAULT
 62
     7
 10
84.07791364126236
 20
60.18330855419207
 30
0.0
 11
84.00554817167821
 21
64.6375317922173
 31
0.0
  0
POLYLINE
  5
71
  8
DEFAULT
 62
     7
 66
     1
 10
0.0
 20
0.0
 30
0.0
 70
     1
  0
VERTEX
  5
72
  8
DEFAULT
 62
     7
 10
15.19500265036152
 20
89.26425135793001
 30
0.0
  0
VERTEX
  5
73
  8
DEFAULT
 62
     7
 10
15.35247693404235
 20
89.25131904919684
 30
0.0
  0
VERTEX
  5
74
  8
DEFAULT
 62
     7
 10
15.5094547673447
 20
89.26936121880763
 30
0.0
  0
VERTEX
  5
75
  8
DEFAULT
 62
     7
 10
15.65989432679981
 20
89.31767903458544
 30
0.0
  0
VERTEX
  5
76
  8
DEFAULT
 62
     7
 10
15.79801766796893
 20
89.3944124848082
 30
0.0
  0
VERTEX
  5
77
  8
DEFAULT
 62
     7
 10
15.91852261135935
 20
89.49661808834674
 30
0.0
  0
VERTEX
  5
78
  8
DEFAULT
 62
     7
 10
16.01675437560705
 20
89.6203812668788
 30
0.0
  0
VERTEX
  5
79
  8
DEFAULT
 62
     7
 10
16.08896889744099
 20
89.76092424457728
 30
0.0
  0
VERTEX
  5
7A
  8
DEFAULT
 62
     7
 10
16.13236973002202
 20
89.91284644637895
 30
0.0
  0
VERTEX
  5
7B
  8
DEFAULT
 62
     7
 10
16.14530203875518
 20
90.07033135230886
 30
0.0
  0
VERTEX
  5
7C
  8
DEFAULT
 62
     7
 10
16.12725651474994
 20
90.22730415401955
 30
0.0
  0
VERTEX
  5
7D
  8
DEFAULT
 62
     7
 10
16.0789409352351
 20
90.37773365029132
 30
0.0
  0
VERTEX
  5
7E
  8
DEFAULT
 62
     7
 10
16.00220357155215
 20
90.51586258211783
 30
0.0
  0
VERTEX
  5
7F
  8
DEFAULT
 62
     7
 10
15.90000355867104
 20
90.63635802139065
 30
0.0
  0
VERTEX
  5
80
  8
DEFAULT
 62
     7
 10
15.77623255321858
 20
90.734597053493
 30
0.0
  0
VERTEX
  5
81
  8
DEFAULT
 62
     7
 10
15.63569069365158
 20
90.80680933906397
 30
0.0
  0
VERTEX
  5
82
  8
DEFAULT
 62
     7
 10
15.48375619240361
 20
90.85021352603945
 30
0.0
  0
VERTEX
  5
83
  8
DEFAULT
 62
     7
 10
15.32628134965704
 20
90.8631458347726
 30
0.0
  0
VERTEX
  5
84
  8
DEFAULT
 62
     7
 10
15.16930407542043
 20
90.84510366516182
 30
0.0
  0
VERTEX
  5
85
  8
DEFAULT
 62
     7
 10
15.01887234288569
 20
90.79679423537014
 30
0.0
  0
VERTEX
  5
86
  8
DEFAULT
 62
     7
 10
14.88074900171658
 20
90.72004401317513
 30
0.0
  0
VERTEX
  5
87
  8
DEFAULT
 62
     7
 10
14.7602513261808
 20
90.61783785057087
 30
0.0
  0
VERTEX
  5
88
  8
DEFAULT
 62
     7
 10
14.66201117594697
 20
90.49408361709064
 30
0.0
  0
VERTEX
  5
89
  8
DEFAULT
 62
     7
 10
14.5898055991649
 20
90.35354958444404
 30
0.0
  0
VERTEX
  5
8A
  8
DEFAULT
 62
     7
 10
14.54640476658388
 20
90.2016184375905
 30
0.0
  0
VERTEX
  5
8B
  8
DEFAULT
 62
     7
 10
14.53346351279885
 20
90.04413353166059
 30
0.0
  0
VERTEX
  5
8C
  8
DEFAULT
 62
     7
 10
14.55150903680408
 20
89.88716911593603
 30
0.0
  0
VERTEX
  5
8D
  8
DEFAULT
 62
     7
 10
14.59982461631893
 20
89.73673123367814
 30
0.0
  0
VERTEX
  5
8E
  8
DEFAULT
 62
     7
 10
14.67656309813336
 20
89.59860230185161
 30
0.0
  0
VERTEX
  5
8F
  8
DEFAULT
 62
     7
 10
14.77876199288299
 20
89.47809847659266
 30
0.0
  0
VERTEX
  5
90
  8
DEFAULT
 62
     7
 10
14.90251846262617
 20
89.37986783047646
 30
0.0
  0
VERTEX
  5
91
  8
DEFAULT
 62
     7
 10
15.04307709416541
 20
89.30765554490549
 30
0.0
  0
SEQEND
  5
92
  8
DEFAULT
 62
     7
  0
POLYLINE
  5
93
  8
DEFAULT
 62
     7
 66
     1
 10
0.0
 20
0.0
 30
0.0
 70
     1
  0
VERTEX
  5
94
  8
DEFAULT
 62
     7
 10
56.00554276628963
 20
116.9732887618743
 30
0.0
  0
VERTEX
  5
95
  8
DEFAULT
 62
     7
 10
55.86116962919591
 20
116.683211911222
 30
0.0
  0
VERTEX
  5
96
  8
DEFAULT
 62
     7
 10
55.78009000189845
 20
116.3828980077764
 30
0.0
  0
VERTEX
  5
97
  8
DEFAULT
 62
     7
 10
55.7580208817514
 20
116.0902198242288
 30
0.0
  0
VERTEX
  5
98
  8
DEFAULT
 62
     7
 10
55.78958014286099
 20
115.7984367049333
 30
0.0
  0
VERTEX
  5
99
  8
DEFAULT
 62
     7
 10
55.8803724192861
 20
115.500912539538
 30
0.0
  0
VERTEX
  5
9A
  8
DEFAULT
 62
     7
 10
56.03408642678939
 20
115.2156811116676
 30
0.0
  0
VERTEX
  5
9B
  8
DEFAULT
 62
     7
 10
56.24685790296534
 20
114.9622778555285
 30
0.0
  0
VERTEX
  5
9C
  8
DEFAULT
 62
     7
 10
56.50702194111686
 20
114.7578487583477
 30
0.0
  0
VERTEX
  5
9D
  8
DEFAULT
 62
     7
 10
56.79709879176916
 20
114.6135102833299
 30
0.0
  0
VERTEX
  5
9E
  8
DEFAULT
 62
     7
 10
57.09742946718695
 20
114.5324177975204
 30
0.0
  0
VERTEX
  5
9F
  8
DEFAULT
 62
     7
 10
57.39009087876237
 20
114.5103486773734
 30
0.0
  0
VERTEX
  5
A0
  8
DEFAULT
 62
     7
 10
57.68187847058375
 20
114.541903465957
 30
0.0
  0
VERTEX
  5
A1
  8
DEFAULT
 62
     7
 10
57.97940207691329
 20
114.6327125143544
 30
0.0
  0
VERTEX
  5
A2
  8
DEFAULT
 62
     7
 10
58.26463797730965
 20
114.7864013638993
 30
0.0
  0
VERTEX
  5
A3
  8
DEFAULT
 62
     7
 10
58.51803731998862
 20
114.9991728400752
 30
0.0
  0
VERTEX
  5
A4
  8
DEFAULT
 62
     7
 10
58.72245747211755
 20
115.2593497367388
 30
0.0
  0
VERTEX
  5
A5
  8
DEFAULT
 62
     7
 10
58.86681775069922
 20
115.5494265873911
 30
0.0
  0
VERTEX
  5
A6
  8
DEFAULT
 62
     7
 10
58.94790576398279
 20
115.8497399317709
 30
0.0
  0
VERTEX
  5
A7
  8
DEFAULT
 62
     7
 10
58.96996202561778
 20
116.1424102883982
 30
0.0
  0
VERTEX
  5
A8
  8
DEFAULT
 62
     7
 10
58.93841562302025
 20
116.4341934076937
 30
0.0
  0
VERTEX
  5
A9
  8
DEFAULT
 62
     7
 10
58.84758980265062
 20
116.7317259590751
 30
0.0
  0
VERTEX
  5
AA
  8
DEFAULT
 62
     7
 10
58.6939098981576
 20
117.0169484418936
 30
0.0
  0
VERTEX
  5
AB
  8
DEFAULT
 62
     7
 10
58.48113339038997
 20
117.2703522570985
 30
0.0
  0
VERTEX
  5
AC
  8
DEFAULT
 62
     7
 10
58.22096935223843
 20
117.4747724092275
 30
0.0
  0
VERTEX
  5
AD
  8
DEFAULT
 62
     7
 10
57.93088858812595
 20
117.6191282152832
 30
0.0
  0
VERTEX
  5
AE
  8
DEFAULT
 62
     7
 10
57.6305662986943
 20
117.7002123151066
 30
0.0
  0
VERTEX
  5
AF
  8
DEFAULT
 62
     7
 10
57.33793060414298
 20
117.7222808761879
 30
0.0
  0
VERTEX
  5
B0
  8
DEFAULT
 62
     7
 10
57.04612624034934
 20
117.6907177016181
 30
0.0
  0
VERTEX
  5
B1
  8
DEFAULT
 62
     7
 10
56.74858083045589
 20
117.5999259842587
 30
0.0
  0
VERTEX
  5
B2
  8
DEFAULT
 62
     7
 10
56.46336673362345
 20
117.4462371347138
 30
0.0
  0
VERTEX
  5
B3
  8
DEFAULT
 62
     7
 10
56.20997130440467
 20
117.2334483274999
 30
0.0
  0
SEQEND
  5
B4
  8
DEFAULT
 62
     7
  0
POLYLINE
  5
B5
  8
DEFAULT
 62
     7
 66
     1
 10
0.0
 20
0.0
 30
0.0
 70
     1
  0
VERTEX
  5
B6
  8
DEFAULT
 62
     7
 10
94.58365957959482
 20
60.17452619045832
 30
0.0
  0
VERTEX
  5
B7
  8
DEFAULT
 62
     7
 10
94.63753059538328
 20
60.32306660358943
 30
0.0
  0
VERTEX
  5
B8
  8
DEFAULT
 62
     7
 10
94.66137363112821
 20
60.4792628629851
 30
0.0
  0
VERTEX
  5
B9
  8
DEFAULT
 62
     7
 10
94.65431039454965
 20
60.63711842950166
 30
0.0
  0
VERTEX
  5
BA
  8
DEFAULT
 62
     7
 10
94.6165622756813
 20
60.79055569946289
 30
0.0
  0
VERTEX
  5
BB
  8
DEFAULT
 62
     7
 10
94.54962198005299
 20
60.93368323808446
 30
0.0
  0
VERTEX
  5
BC
  8
DEFAULT
 62
     7
 10
94.45604891062949
 20
61.06099033435213
 30
0.0
  0
VERTEX
  5
BD
  8
DEFAULT
 62
     7
 10
94.33943506480016
 20
61.16761535257749
 30
0.0
  0
VERTEX
  5
BE
  8
DEFAULT
 62
     7
 10
94.20424961410279
 20
61.24942847412782
 30
0.0
  0
VERTEX
  5
BF
  8
DEFAULT
 62
     7
 10
94.05570472844575
 20
61.30329948991629
 30
0.0
  0
VERTEX
  5
C0
  8
DEFAULT
 62
     7
 10
93.89950846905005
 20
61.32715147071309
 30
0.0
  0
VERTEX
  5
C1
  8
DEFAULT
 62
     7
 10
93.74166576104555
 20
61.32007537562249
 30
0.0
  0
VERTEX
  5
C2
  8
DEFAULT
 62
     7
 10
93.58821619163801
 20
61.28234850125231
 30
0.0
  0
VERTEX
  5
C3
  8
DEFAULT
 62
     7
 10
93.44508865301643
 20
61.21539534711194
 30
0.0
  0
VERTEX
  5
C4
  8
DEFAULT
 62
     7
 10
93.31778547020896
 20
61.12181836422825
 30
0.0
  0
VERTEX
  5
C5
  8
DEFAULT
 62
     7
 10
93.2111777830216
 20
61.00520395933316
 30
0.0
  0
VERTEX
  5
C6
  8
DEFAULT
 62
     7
 10
93.12935124389347
 20
60.87002298116174
 30
0.0
  0
VERTEX
  5
C7
  8
DEFAULT
 62
     7
 10
93.07548861409113
 20
60.72148256803063
 30
0.0
  0
VERTEX
  5
C8
  8
DEFAULT
 62
     7
 10
93.05161986132207
 20
60.565281836109
 30
0.0
  0
VERTEX
  5
C9
  8
DEFAULT
 62
     7
 10
93.05870042893858
 20
60.40743465557857
 30
0.0
  0
VERTEX
  5
CA
  8
DEFAULT
 62
     7
 10
93.09644016182085
 20
60.25398955869697
 30
0.0
  0
VERTEX
  5
CB
  8
DEFAULT
 62
     7
 10
93.16338884343529
 20
60.11087487858743
 30
0.0
  0
VERTEX
  5
CC
  8
DEFAULT
 62
     7
 10
93.25695296780691
 20
59.98355883726792
 30
0.0
  0
VERTEX
  5
CD
  8
DEFAULT
 62
     7
 10
93.37355898671586
 20
59.87694667755461
 30
0.0
  0
VERTEX
  5
CE
  8
DEFAULT
 62
     7
 10
93.50875282339935
 20
59.79512908347834
 30
0.0
  0
VERTEX
  5
CF
  8
DEFAULT
 62
     7
 10
93.65729714999065
 20
59.74126198115007
 30
0.0
  0
VERTEX
  5
D0
  8
DEFAULT
 62
     7
 10
93.81350235443821
 20
59.71740217343289
 30
0.0
  0
VERTEX
  5
D1
  8
DEFAULT
 62
     7
 10
93.97135400749457
 20
59.72447826852346
 30
0.0
  0
VERTEX
  5
D2
  8
DEFAULT
 62
     7
 10
94.12478624586412
 20
59.76220905635386
 30
0.0
  0
VERTEX
  5
D3
  8
DEFAULT
 62
     7
 10
94.26791378448571
 20
59.82915773796829
 30
0.0
  0
VERTEX
  5
D4
  8
DEFAULT
 62
     7
 10
94.3952426843173
 20
59.92274366590386
 30
0.0
  0
VERTEX
  5
D5
  8
DEFAULT
 62
     7
 10
94.50185037150466
 20
60.03935751173319
 30
0.0
  0
SEQEND
  5
D6
  8
DEFAULT
 62
     7
  0
POLYLINE
  5
D7
  8
DEFAULT
 62
     7
 66
     1
 10
0.0
 20
0.0
 30
0.0
 70
     1
  0
VERTEX
  5
D8
  8
DEFAULT
 62
     7
 10
26.65760693636731
 20
22.92817441577042
 30
0.0
  0
VERTEX
  5
D9
  8
DEFAULT
 62
     7
 10
26.78714917746963
 20
23.01864634752563
 30
0.0
  0
VERTEX
  5
DA
  8
DEFAULT
 62
     7
 10
26.89655722495633
 20
23.13265047447349
 30
0.0
  0
VERTEX
  5
DB
  8
DEFAULT
 62
     7
 10
26.98160565995292
 20
23.2658053983976
 30
0.0
  0
VERTEX
  5
DC
  8
DEFAULT
 62
     7
 10
27.03906196434185
 20
23.41301076253793
 30
0.0
  0
VERTEX
  5
DD
  8
DEFAULT
 62
     7
 10
27.06668428449955
 20
23.56858422269755
 30
0.0
  0
VERTEX
  5
DE
  8
DEFAULT
 62
     7
 10
27.06343219908106
 20
23.72656166554577
 30
0.0
  0
VERTEX
  5
DF
  8
DEFAULT
 62
     7
 10
27.02942423002354
 20
23.88086213301191
 30
0.0
  0
VERTEX
  5
E0
  8
DEFAULT
 62
     7
 10
26.96595629171591
 20
24.02556120543295
 30
0.0
  0
VERTEX
  5
E1
  8
DEFAULT
 62
     7
 10
26.87548435996069
 20
24.1551079190612
 30
0.0
  0
VERTEX
  5
E2
  8
DEFAULT
 62
     7
 10
26.76148023301283
 20
24.26451205308771
 30
0.0
  0
VERTEX
  5
E3
  8
DEFAULT
 62
     7
 10
26.62832307282575
 20
24.34957558285933
 30
0.0
  0
VERTEX
  5
E4
  8
DEFAULT
 62
     7
 10
26.48111994494839
 20
24.40701679247324
 30
0.0
  0
VERTEX
  5
E5
  8
DEFAULT
 62
     7
 10
26.3255442485258
 20
24.4346452623541
 30
0.0
  0
VERTEX
  5
E6
  8
DEFAULT
 62
     7
 10
26.16758413671558
 20
24.43137808216057
 30
0.0
  0
VERTEX
  5
E7
  8
DEFAULT
 62
     7
 10
26.01326242475125
 20
24.39737905815493
 30
0.0
  0
VERTEX
  5
E8
  8
DEFAULT
 62
     7
 10
25.8685672657904
 20
24.33390888358432
 30
0.0
  0
VERTEX
  5
E9
  8
DEFAULT
 62
     7
 10
25.73902055216216
 20
24.24342856584299
 30
0.0
  0
VERTEX
  5
EA
  8
DEFAULT
 62
     7
 10
25.62961697720138
 20
24.12942443889512
 30
0.0
  0
VERTEX
  5
EB
  8
DEFAULT
 62
     7
 10
25.54454673864087
 20
23.99627790095714
 30
0.0
  0
VERTEX
  5
EC
  8
DEFAULT
 62
     7
 10
25.48711391501309
 20
23.8490725368168
 30
0.0
  0
VERTEX
  5
ED
  8
DEFAULT
 62
     7
 10
25.45949159485538
 20
23.69350746264331
 30
0.0
  0
VERTEX
  5
EE
  8
DEFAULT
 62
     7
 10
25.46275933411464
 20
23.53552163380897
 30
0.0
  0
VERTEX
  5
EF
  8
DEFAULT
 62
     7
 10
25.49675779905455
 20
23.38121445755393
 30
0.0
  0
VERTEX
  5
F0
  8
DEFAULT
 62
     7
 10
25.56021120165291
 20
23.23652153485605
 30
0.0
  0
VERTEX
  5
F1
  8
DEFAULT
 62
     7
 10
25.65070046444611
 20
23.1069748212278
 30
0.0
  0
VERTEX
  5
F2
  8
DEFAULT
 62
     7
 10
25.76471241831435
 20
22.99757124626703
 30
0.0
  0
VERTEX
  5
F3
  8
DEFAULT
 62
     7
 10
25.89785951531807
 20
22.91251666154727
 30
0.0
  0
VERTEX
  5
F4
  8
DEFAULT
 62
     7
 10
26.04504978468339
 20
22.8550665068815
 30
0.0
  0
VERTEX
  5
F5
  8
DEFAULT
 62
     7
 10
26.20062324484301
 20
22.82743803700064
 30
0.0
  0
VERTEX
  5
F6
  8
DEFAULT
 62
     7
 10
26.35861578246624
 20
22.83070521719416
 30
0.0
  0
VERTEX
  5
F7
  8
DEFAULT
 62
     7
 10
26.51290115515737
 20
22.86470424119981
 30
0.0
  0
SEQEND
  5
F8
  8
DEFAULT
 62
     7
  0
POLYLINE
  5
F9
  8
DEFAULT
 62
     7
 66
     1
 10
0.0
 20
0.0
 30
0.0
 70
     1
  0
VERTEX
  5
FA
  8
DEFAULT
 62
     7
 10
80.62411115349077
 20
89.93042850488445
 30
0.0
  0
VERTEX
  5
FB
  8
DEFAULT
 62
     7
 10
80.32378047807299
 20
90.01152099069395
 30
0.0
  0
VERTEX
  5
FC
  8
DEFAULT
 62
     7
 10
80.0311190664976
 20
90.03358116578913
 30
0.0
  0
VERTEX
  5
FD
  8
DEFAULT
 62
     7
 10
79.739327561216
 20
90.00201743215362
 30
0.0
  0
VERTEX
  5
FE
  8
DEFAULT
 62
     7
 10
79.44177823786237
 20
89.91121732880812
 30
0.0
  0
VERTEX
  5
FF
  8
DEFAULT
 62
     7
 10
79.15657196795031
 20
89.75751170729096
 30
0.0
  0
VERTEX
  5
100
  8
DEFAULT
 62
     7
 10
78.90315193983889
 20
89.54474861710112
 30
0.0
  0
VERTEX
  5
101
  8
DEFAULT
 62
     7
 10
78.6987228426581
 20
89.28457172043754
 30
0.0
  0
VERTEX
  5
102
  8
DEFAULT
 62
     7
 10
78.55437542258849
 20
88.99448648379911
 30
0.0
  0
VERTEX
  5
103
  8
DEFAULT
 62
     7
 10
78.47329132276512
 20
88.69417258035358
 30
0.0
  0
VERTEX
  5
104
  8
DEFAULT
 62
     7
 10
78.45122276168381
 20
88.40150278279205
 30
0.0
  0
VERTEX
  5
105
  8
DEFAULT
 62
     7
 10
78.48278593625359
 20
88.10971966349659
 30
0.0
  0
VERTEX
  5
106
  8
DEFAULT
 62
     7
 10
78.57358659866482
 20
87.8121871121152
 30
0.0
  0
VERTEX
  5
107
  8
DEFAULT
 62
     7
 10
78.7272832751301
 20
87.52695568424475
 30
0.0
  0
VERTEX
  5
108
  8
DEFAULT
 62
     7
 10
78.9400553103718
 20
87.2735524281056
 30
0.0
  0
VERTEX
  5
109
  8
DEFAULT
 62
     7
 10
79.20024897900764
 20
87.06913171691093
 30
0.0
  0
VERTEX
  5
10A
  8
DEFAULT
 62
     7
 10
79.4903090576877
 20
86.92478485590708
 30
0.0
  0
VERTEX
  5
10B
  8
DEFAULT
 62
     7
 10
79.79063973310548
 20
86.84368342504568
 30
0.0
  0
VERTEX
  5
10C
  8
DEFAULT
 62
     7
 10
80.0833011446809
 20
86.8216148639644
 30
0.0
  0
VERTEX
  5
10D
  8
DEFAULT
 62
     7
 10
80.3751010359486
 20
86.85317803853417
 30
0.0
  0
VERTEX
  5
10E
  8
DEFAULT
 62
     7
 10
80.67263358733
 20
86.94398708693154
 30
0.0
  0
VERTEX
  5
10F
  8
DEFAULT
 62
     7
 10
80.9578566292143
 20
87.09768432246257
 30
0.0
  0
VERTEX
  5
110
  8
DEFAULT
 62
     7
 10
81.21125149936735
 20
87.31045579863851
 30
0.0
  0
VERTEX
  5
111
  8
DEFAULT
 62
     7
 10
81.41568898253425
 20
87.5706326953021
 30
0.0
  0
VERTEX
  5
112
  8
DEFAULT
 62
     7
 10
81.56001907156588
 20
87.8607095459544
 30
0.0
  0
VERTEX
  5
113
  8
DEFAULT
 62
     7
 10
81.64112888841336
 20
88.16103183538605
 30
0.0
  0
VERTEX
  5
114
  8
DEFAULT
 62
     7
 10
81.6631806775224
 20
88.45369324696146
 30
0.0
  0
VERTEX
  5
115
  8
DEFAULT
 62
     7
 10
81.63163427492488
 20
88.74548475224306
 30
0.0
  0
VERTEX
  5
116
  8
DEFAULT
 62
     7
 10
81.54082522652753
 20
89.04301730362445
 30
0.0
  0
VERTEX
  5
117
  8
DEFAULT
 62
     7
 10
81.38711960501038
 20
89.32824873149488
 30
0.0
  0
VERTEX
  5
118
  8
DEFAULT
 62
     7
 10
81.17435651482054
 20
89.58164360164793
 30
0.0
  0
VERTEX
  5
119
  8
DEFAULT
 62
     7
 10
80.91417961815696
 20
89.78607213976296
 30
0.0
  0
SEQEND
  5
11A
  8
DEFAULT
 62
     7
  0
POLYLINE
  5
11B
  8
DEFAULT
 62
     7
 66
     1
 10
0.0
 20
0.0
 30
0.0
 70
     1
  0
VERTEX
  5
11C
  8
DEFAULT
 62
     7
 10
14.91948778507895
 20
88.74771095202583
 30
0.0
  0
VERTEX
  5
11D
  8
DEFAULT
 62
     7
 10
14.62939919404607
 20
88.89207570313343
 30
0.0
  0
VERTEX
  5
11E
  8
DEFAULT
 62
     7
 10
14.32907187302274
 20
88.97315980295683
 30
0.0
  0
VERTEX
  5
11F
  8
DEFAULT
 62
     7
 10
14.03642667435384
 20
88.995219978052
 30
0.0
  0
VERTEX
  5
120
  8
DEFAULT
 62
     7
 10
13.74462231056019
 20
88.96366518946834
 30
0.0
  0
VERTEX
  5
121
  8
DEFAULT
 62
     7
 10
13.44709367263898
 20
88.8728645270571
 30
0.0
  0
VERTEX
  5
122
  8
DEFAULT
 62
     7
 10
13.16188181206951
 20
88.71915890553997
 30
0.0
  0
VERTEX
  5
123
  8
DEFAULT
 62
     7
 10
12.90845563423495
 20
88.50638742936403
 30
0.0
  0
VERTEX
  5
124
  8
DEFAULT
 62
     7
 10
12.70402597798842
 20
88.24621891868654
 30
0.0
  0
VERTEX
  5
125
  8
DEFAULT
 62
     7
 10
12.5596986842855
 20
87.95613368204813
 30
0.0
  0
VERTEX
  5
126
  8
DEFAULT
 62
     7
 10
12.47860284408155
 20
87.6558197786026
 30
0.0
  0
VERTEX
  5
127
  8
DEFAULT
 62
     7
 10
12.45654490524933
 20
87.36315836702718
 30
0.0
  0
VERTEX
  5
128
  8
DEFAULT
 62
     7
 10
12.48811031608208
 20
87.0713668617456
 30
0.0
  0
VERTEX
  5
129
  8
DEFAULT
 62
     7
 10
12.5789120966248
 20
86.77384269635031
 30
0.0
  0
VERTEX
  5
12A
  8
DEFAULT
 62
     7
 10
12.73260821402434
 20
86.48861182754563
 30
0.0
  0
VERTEX
  5
12B
  8
DEFAULT
 62
     7
 10
12.94537857206881
 20
86.2351996263546
 30
0.0
  0
VERTEX
  5
12C
  8
DEFAULT
 62
     7
 10
13.20555770499537
 20
86.03078786021179
 30
0.0
  0
VERTEX
  5
12D
  8
DEFAULT
 62
     7
 10
13.49563008312174
 20
85.88643205415606
 30
0.0
  0
VERTEX
  5
12E
  8
DEFAULT
 62
     7
 10
13.79595125442191
 20
85.80533956834655
 30
0.0
  0
VERTEX
  5
12F
  8
DEFAULT
 62
     7
 10
14.08861825665474
 20
85.78327883418564
 30
0.0
  0
VERTEX
  5
130
  8
DEFAULT
 62
     7
 10
14.38039969875298
 20
85.81484256782117
 30
0.0
  0
VERTEX
  5
131
  8
DEFAULT
 62
     7
 10
14.67792833667419
 20
85.90564267116665
 30
0.0
  0
VERTEX
  5
132
  8
DEFAULT
 62
     7
 10
14.96316367800481
 20
86.05933990669769
 30
0.0
  0
VERTEX
  5
133
  8
DEFAULT
 62
     7
 10
15.21655854815784
 20
86.27210355595325
 30
0.0
  0
VERTEX
  5
134
  8
DEFAULT
 62
     7
 10
15.42098149561547
 20
86.53227989355109
 30
0.0
  0
VERTEX
  5
135
  8
DEFAULT
 62
     7
 10
15.56531605717303
 20
86.82236513018954
 30
0.0
  0
VERTEX
  5
136
  8
DEFAULT
 62
     7
 10
15.64642643308626
 20
87.12268741962116
 30
0.0
  0
VERTEX
  5
137
  8
DEFAULT
 62
     7
 10
15.66848493098422
 20
87.41534883119658
 30
0.0
  0
VERTEX
  5
138
  8
DEFAULT
 62
     7
 10
15.63691896108573
 20
87.70714033647818
 30
0.0
  0
VERTEX
  5
139
  8
DEFAULT
 62
     7
 10
15.54611885774024
 20
88.00466450187346
 30
0.0
  0
VERTEX
  5
13A
  8
DEFAULT
 62
     7
 10
15.39242162220921
 20
88.28989592974388
 30
0.0
  0
VERTEX
  5
13B
  8
DEFAULT
 62
     7
 10
15.179650705099
 20
88.54329079989692
 30
0.0
  0
SEQEND
  5
13C
  8
DEFAULT
 62
     7
  0
POLYLINE
  5
13D
  8
DEFAULT
 62
     7
 66
     1
 10
0.0
 20
0.0
 30
0.0
 70
     1
  0
VERTEX
  5
13E
  8
DEFAULT
 62
     7
 10
58.34455307066749
 20
118.0346996710691
 30
0.0
  0
VERTEX
  5
13F
  8
DEFAULT
 62
     7
 10
58.49648421752101
 20
117.9913044291455
 30
0.0
  0
VERTEX
  5
140
  8
DEFAULT
 62
     7
 10
58.65396912345092
 20
117.9783715613466
 30
0.0
  0
VERTEX
  5
141
  8
DEFAULT
 62
     7
 10
58.81093353917548
 20
117.9964142900231
 30
0.0
  0
VERTEX
  5
142
  8
DEFAULT
 62
     7
 10
58.96137589395929
 20
118.0447315467352
 30
0.0
  0
VERTEX
  5
143
  8
DEFAULT
 62
     7
 10
59.09949588073397
 20
118.121464996958
 30
0.0
  0
VERTEX
  5
144
  8
DEFAULT
 62
     7
 10
59.22001312357069
 20
118.2236795455484
 30
0.0
  0
VERTEX
  5
145
  8
DEFAULT
 62
     7
 10
59.31825215567304
 20
118.3474253930424
 30
0.0
  0
VERTEX
  5
146
  8
DEFAULT
 62
     7
 10
59.3904426376801
 20
118.487976756727
 30
0.0
  0
VERTEX
  5
147
  8
DEFAULT
 62
     7
 10
59.43385129718151
 20
118.6398905725426
 30
0.0
  0
VERTEX
  5
148
  8
DEFAULT
 62
     7
 10
59.44678360591466
 20
118.7973754784725
 30
0.0
  0
VERTEX
  5
149
  8
DEFAULT
 62
     7
 10
59.42874982229001
 20
118.9543566661693
 30
0.0
  0
VERTEX
  5
14A
  8
DEFAULT
 62
     7
 10
59.38043647903812
 20
119.1047951074929
 30
0.0
  0
VERTEX
  5
14B
  8
DEFAULT
 62
     7
 10
59.30369855628943
 20
119.2429150942676
 30
0.0
  0
VERTEX
  5
14C
  8
DEFAULT
 62
     7
 10
59.20148400769904
 20
119.3634189195265
 30
0.0
  0
VERTEX
  5
14D
  8
DEFAULT
 62
     7
 10
59.07772586075863
 20
119.4616411796566
 30
0.0
  0
VERTEX
  5
14E
  8
DEFAULT
 62
     7
 10
58.93718288306017
 20
119.5338618512137
 30
0.0
  0
VERTEX
  5
14F
  8
DEFAULT
 62
     7
 10
58.78525620873257
 20
119.5772660381892
 30
0.0
  0
VERTEX
  5
150
  8
DEFAULT
 62
     7
 10
58.62779254730082
 20
119.5902067329085
 30
0.0
  0
VERTEX
  5
151
  8
DEFAULT
 62
     7
 10
58.47081135960402
 20
119.5721561773116
 30
0.0
  0
VERTEX
  5
152
  8
DEFAULT
 62
     7
 10
58.32036453229428
 20
119.5238383615338
 30
0.0
  0
VERTEX
  5
153
  8
DEFAULT
 62
     7
 10
58.18224454551961
 20
119.447104911311
 30
0.0
  0
VERTEX
  5
154
  8
DEFAULT
 62
     7
 10
58.06174016119493
 20
119.3448903627206
 30
0.0
  0
VERTEX
  5
155
  8
DEFAULT
 62
     7
 10
57.96351846013057
 20
119.2211445152265
 30
0.0
  0
VERTEX
  5
156
  8
DEFAULT
 62
     7
 10
57.89130617455961
 20
119.0805937106076
 30
0.0
  0
VERTEX
  5
157
  8
DEFAULT
 62
     7
 10
57.84789807412393
 20
118.9286709497402
 30
0.0
  0
VERTEX
  5
158
  8
DEFAULT
 62
     7
 10
57.83495234781298
 20
118.7712033748483
 30
0.0
  0
VERTEX
  5
159
  8
DEFAULT
 62
     7
 10
57.85300793500156
 20
118.6142221871515
 30
0.0
  0
VERTEX
  5
15A
  8
DEFAULT
 62
     7
 10
57.90133413676549
 20
118.4637837458279
 30
0.0
  0
VERTEX
  5
15B
  8
DEFAULT
 62
     7
 10
57.97806311446232
 20
118.3256553730671
 30
0.0
  0
VERTEX
  5
15C
  8
DEFAULT
 62
     7
 10
58.08026033201472
 20
118.2051677607147
 30
0.0
  0
VERTEX
  5
15D
  8
DEFAULT
 62
     7
 10
58.20402742400699
 20
118.1069287286123
 30
0.0
  0
SEQEND
  5
15E
  8
DEFAULT
 62
     7
  0
POLYLINE
  5
15F
  8
DEFAULT
 62
     7
 66
     1
 10
0.0
 20
0.0
 30
0.0
 70
     1
  0
VERTEX
  5
160
  8
DEFAULT
 62
     7
 10
72.1221082668642
 20
91.1031902150178
 30
0.0
  0
VERTEX
  5
161
  8
DEFAULT
 62
     7
 10
72.07377759257433
 20
91.25362865634142
 30
0.0
  0
VERTEX
  5
162
  8
DEFAULT
 62
     7
 10
71.99705700086365
 20
91.39175702910222
 30
0.0
  0
VERTEX
  5
163
  8
DEFAULT
 62
     7
 10
71.89483853881306
 20
91.51225246837504
 30
0.0
  0
VERTEX
  5
164
  8
DEFAULT
 62
     7
 10
71.77107536028099
 20
91.61049205954312
 30
0.0
  0
VERTEX
  5
165
  8
DEFAULT
 62
     7
 10
71.63053294164824
 20
91.68270378604836
 30
0.0
  0
VERTEX
  5
166
  8
DEFAULT
 62
     7
 10
71.47860570825492
 20
91.72610797302383
 30
0.0
  0
VERTEX
  5
167
  8
DEFAULT
 62
     7
 10
71.32111688886481
 20
91.739040281757
 30
0.0
  0
VERTEX
  5
168
  8
DEFAULT
 62
     7
 10
71.16414408715413
 20
91.72100649813233
 30
0.0
  0
VERTEX
  5
169
  8
DEFAULT
 62
     7
 10
71.01371011835644
 20
91.6726802963684
 30
0.0
  0
VERTEX
  5
16A
  8
DEFAULT
 62
     7
 10
70.87556888708359
 20
91.59594684614565
 30
0.0
  0
VERTEX
  5
16B
  8
DEFAULT
 62
     7
 10
70.75510307829506
 20
91.49374124260711
 30
0.0
  0
VERTEX
  5
16C
  8
DEFAULT
 62
     7
 10
70.65685510114086
 20
91.36998700912689
 30
0.0
  0
VERTEX
  5
16D
  8
DEFAULT
 62
     7
 10
70.5846389021097
 20
91.2294356454423
 30
0.0
  0
VERTEX
  5
16E
  8
DEFAULT
 62
     7
 10
70.54122185662217
 20
91.0775128845749
 30
0.0
  0
VERTEX
  5
16F
  8
DEFAULT
 62
     7
 10
70.5282811619029
 20
90.92003692369684
 30
0.0
  0
VERTEX
  5
170
  8
DEFAULT
 62
     7
 10
70.54633619002573
 20
90.76304679094817
 30
0.0
  0
VERTEX
  5
171
  8
DEFAULT
 62
     7
 10
70.59465400580353
 20
90.61261729467641
 30
0.0
  0
VERTEX
  5
172
  8
DEFAULT
 62
     7
 10
70.67138298350037
 20
90.47448836284988
 30
0.0
  0
VERTEX
  5
173
  8
DEFAULT
 62
     7
 10
70.773614304063
 20
90.35399292357707
 30
0.0
  0
VERTEX
  5
174
  8
DEFAULT
 62
     7
 10
70.8973601515571
 20
90.25575389147473
 30
0.0
  0
VERTEX
  5
175
  8
DEFAULT
 62
     7
 10
71.03790760178151
 20
90.18354999188986
 30
0.0
  0
VERTEX
  5
176
  8
DEFAULT
 62
     7
 10
71.18982980358317
 20
90.14013797799402
 30
0.0
  0
VERTEX
  5
177
  8
DEFAULT
 62
     7
 10
71.34731470951309
 20
90.1272051101951
 30
0.0
  0
VERTEX
  5
178
  8
DEFAULT
 62
     7
 10
71.50428751122377
 20
90.14524783887164
 30
0.0
  0
VERTEX
  5
179
  8
DEFAULT
 62
     7
 10
71.65473825199369
 20
90.19357404063558
 30
0.0
  0
VERTEX
  5
17A
  8
DEFAULT
 62
     7
 10
71.79286718382023
 20
90.27030693179259
 30
0.0
  0
VERTEX
  5
17B
  8
DEFAULT
 62
     7
 10
71.91334976458099
 20
90.37252148038297
 30
0.0
  0
VERTEX
  5
17C
  8
DEFAULT
 62
     7
 10
72.0115804106972
 20
90.49626732787708
 30
0.0
  0
VERTEX
  5
17D
  8
DEFAULT
 62
     7
 10
72.08381394076636
 20
90.63681030557555
 30
0.0
  0
VERTEX
  5
17E
  8
DEFAULT
 62
     7
 10
72.12721812774183
 20
90.78873250737722
 30
0.0
  0
VERTEX
  5
17F
  8
DEFAULT
 62
     7
 10
72.14013757796295
 20
90.94621741330714
 30
0.0
  0
SEQEND
  5
180
  8
DEFAULT
 62
     7
  0
POLYLINE
  5
181
  8
DEFAULT
 62
     7
 66
     1
 10
0.0
 20
0.0
 30
0.0
 70
     1
  0
VERTEX
  5
182
  8
DEFAULT
 62
     7
 10
74.17833585131956
 20
90.9793336725069
 30
0.0
  0
VERTEX
  5
183
  8
DEFAULT
 62
     7
 10
74.22660223304916
 20
90.5594283390926
 30
0.0
  0
VERTEX
  5
184
  8
DEFAULT
 62
     7
 10
74.35584593304547
 20
90.15700275515314
 30
0.0
  0
VERTEX
  5
185
  8
DEFAULT
 62
     7
 10
74.56112816454785
 20
89.7875396873345
 30
0.0
  0
VERTEX
  5
186
  8
DEFAULT
 62
     7
 10
74.83452752506446
 20
89.46519971180402
 30
0.0
  0
VERTEX
  5
187
  8
DEFAULT
 62
     7
 10
75.16557662671656
 20
89.20240415120706
 30
0.0
  0
VERTEX
  5
188
  8
DEFAULT
 62
     7
 10
75.54151479395365
 20
89.00925308723025
 30
0.0
  0
VERTEX
  5
189
  8
DEFAULT
 62
     7
 10
75.94790694932932
 20
88.89313345551642
 30
0.0
  0
VERTEX
  5
18A
  8
DEFAULT
 62
     7
 10
76.36917696221869
 20
88.8585502078109
 30
0.0
  0
VERTEX
  5
18B
  8
DEFAULT
 62
     7
 10
76.78908229563295
 20
88.90680820355436
 30
0.0
  0
VERTEX
  5
18C
  8
DEFAULT
 62
     7
 10
77.1914989345206
 20
89.03604743102474
 30
0.0
  0
VERTEX
  5
18D
  8
DEFAULT
 62
     7
 10
77.56098771936333
 20
89.24132966252712
 30
0.0
  0
VERTEX
  5
18E
  8
DEFAULT
 62
     7
 10
77.88329359188357
 20
89.51473740902983
 30
0.0
  0
VERTEX
  5
18F
  8
DEFAULT
 62
     7
 10
78.14609753846663
 20
89.84577868376157
 30
0.0
  0
VERTEX
  5
190
  8
DEFAULT
 62
     7
 10
78.33925754749531
 20
90.2217252369848
 30
0.0
  0
VERTEX
  5
191
  8
DEFAULT
 62
     7
 10
78.45538556519527
 20
90.62813472339843
 30
0.0
  0
VERTEX
  5
192
  8
DEFAULT
 62
     7
 10
78.48995204092857
 20
91.04938740524982
 30
0.0
  0
VERTEX
  5
193
  8
DEFAULT
 62
     7
 10
78.44171920314348
 20
91.46929217959836
 30
0.0
  0
VERTEX
  5
194
  8
DEFAULT
 62
     7
 10
78.31245425864896
 20
91.87170937755171
 30
0.0
  0
VERTEX
  5
195
  8
DEFAULT
 62
     7
 10
78.10717258621233
 20
92.24118977640833
 30
0.0
  0
VERTEX
  5
196
  8
DEFAULT
 62
     7
 10
77.83378161168184
 20
92.56351242090084
 30
0.0
  0
VERTEX
  5
197
  8
DEFAULT
 62
     7
 10
77.50274033695014
 20
92.82631636748387
 30
0.0
  0
VERTEX
  5
198
  8
DEFAULT
 62
     7
 10
77.12676862576855
 20
93.01947637651259
 30
0.0
  0
VERTEX
  5
199
  8
DEFAULT
 62
     7
 10
76.720384856379
 20
93.13558706317453
 30
0.0
  0
VERTEX
  5
19A
  8
DEFAULT
 62
     7
 10
76.29914056051375
 20
93.17016192489396
 30
0.0
  0
VERTEX
  5
19B
  8
DEFAULT
 62
     7
 10
75.87922684111335
 20
93.12191287420235
 30
0.0
  0
VERTEX
  5
19C
  8
DEFAULT
 62
     7
 10
75.47680125717388
 20
92.99266470168008
 30
0.0
  0
VERTEX
  5
19D
  8
DEFAULT
 62
     7
 10
75.10732085831724
 20
92.78739085616385
 30
0.0
  0
VERTEX
  5
19E
  8
DEFAULT
 62
     7
 10
74.78499821382475
 20
92.51398310966111
 30
0.0
  0
VERTEX
  5
19F
  8
DEFAULT
 62
     7
 10
74.52220265322781
 20
92.18294239399515
 30
0.0
  0
VERTEX
  5
1A0
  8
DEFAULT
 62
     7
 10
74.32903817167319
 20
91.80699584077192
 30
0.0
  0
VERTEX
  5
1A1
  8
DEFAULT
 62
     7
 10
74.21293195753715
 20
91.40058635435827
 30
0.0
  0
SEQEND
  5
1A2
  8
DEFAULT
 62
     7
  0
POLYLINE
  5
1A3
  8
DEFAULT
 62
     7
 66
     1
 10
0.0
 20
0.0
 30
0.0
 70
     1
  0
VERTEX
  5
1A4
  8
DEFAULT
 62
     7
 10
94.95358331758443
 20
56.47513003589106
 30
0.0
  0
VERTEX
  5
1A5
  8
DEFAULT
 62
     7
 10
94.68597643721588
 20
56.28049912489639
 30
0.0
  0
VERTEX
  5
1A6
  8
DEFAULT
 62
     7
 10
94.46394850955735
 20
56.03517380965666
 30
0.0
  0
VERTEX
  5
1A7
  8
DEFAULT
 62
     7
 10
94.29976711417535
 20
55.7558416434909
 30
0.0
  0
VERTEX
  5
1A8
  8
DEFAULT
 62
     7
 10
94.1979880777976
 20
55.46190444389331
 30
0.0
  0
VERTEX
  5
1A9
  8
DEFAULT
 62
     7
 10
94.15561592618101
 20
55.17146531864049
 30
0.0
  0
VERTEX
  5
1AA
  8
DEFAULT
 62
     7
 10
94.16678270530241
 20
54.87819396634107
 30
0.0
  0
VERTEX
  5
1AB
  8
DEFAULT
 62
     7
 10
94.23667430898027
 20
54.57507355287303
 30
0.0
  0
VERTEX
  5
1AC
  8
DEFAULT
 62
     7
 10
94.37015405010023
 20
54.27983596636062
 30
0.0
  0
VERTEX
  5
1AD
  8
DEFAULT
 62
     7
 10
94.56478104763468
 20
54.01224585796431
 30
0.0
  0
VERTEX
  5
1AE
  8
DEFAULT
 62
     7
 10
94.81011418979482
 20
53.79020954431964
 30
0.0
  0
VERTEX
  5
1AF
  8
DEFAULT
 62
     7
 10
95.08945082848649
 20
53.62603262146356
 30
0.0
  0
VERTEX
  5
1B0
  8
DEFAULT
 62
     7
 10
95.38339250061001
 20
53.52424464003396
 30
0.0
  0
VERTEX
  5
1B1
  8
DEFAULT
 62
     7
 10
95.67381038136467
 20
53.48188590599516
 30
0.0
  0
VERTEX
  5
1B2
  8
DEFAULT
 62
     7
 10
95.96710297816226
 20
53.49305659857675
 30
0.0
  0
VERTEX
  5
1B3
  8
DEFAULT
 62
     7
 10
96.27021500564416
 20
53.56294428879443
 30
0.0
  0
VERTEX
  5
1B4
  8
DEFAULT
 62
     7
 10
96.56546097814271
 20
53.69641955738843
 30
0.0
  0
VERTEX
  5
1B5
  8
DEFAULT
 62
     7
 10
96.83303375550105
 20
53.89105046838309
 30
0.0
  0
VERTEX
  5
1B6
  8
DEFAULT
 62
     7
 10
97.05507006914569
 20
54.13637969708302
 30
0.0
  0
VERTEX
  5
1B7
  8
DEFAULT
 62
     7
 10
97.21926823649996
 20
54.41570794978859
 30
0.0
  0
VERTEX
  5
1B8
  8
DEFAULT
 62
     7
 10
97.32104783194343
 20
54.70966192135842
 30
0.0
  0
VERTEX
  5
1B9
  8
DEFAULT
 62
     7
 10
97.36341942449431
 20
55.00006694360101
 30
0.0
  0
VERTEX
  5
1BA
  8
DEFAULT
 62
     7
 10
97.35224425938678
 20
55.29336009946435
 30
0.0
  0
VERTEX
  5
1BB
  8
DEFAULT
 62
     7
 10
97.28234426972277
 20
55.59647604040646
 30
0.0
  0
VERTEX
  5
1BC
  8
DEFAULT
 62
     7
 10
97.14888185964084
 20
55.89170524093274
 30
0.0
  0
VERTEX
  5
1BD
  8
DEFAULT
 62
     7
 10
96.95422914508227
 20
56.15930820784112
 30
0.0
  0
VERTEX
  5
1BE
  8
DEFAULT
 62
     7
 10
96.70891277489437
 20
56.38132719044778
 30
0.0
  0
VERTEX
  5
1BF
  8
DEFAULT
 62
     7
 10
96.4295761362027
 20
56.54552535780206
 30
0.0
  0
VERTEX
  5
1C0
  8
DEFAULT
 62
     7
 10
96.13563502314491
 20
56.64730886670572
 30
0.0
  0
VERTEX
  5
1C1
  8
DEFAULT
 62
     7
 10
95.8452081973384
 20
56.68967654579639
 30
0.0
  0
VERTEX
  5
1C2
  8
DEFAULT
 62
     7
 10
95.55193237251305
 20
56.67849690816293
 30
0.0
  0
VERTEX
  5
1C3
  8
DEFAULT
 62
     7
 10
95.24880413212463
 20
56.60860977701099
 30
0.0
  0
SEQEND
  5
1C4
  8
DEFAULT
 62
     7
  0
POLYLINE
  5
1C5
  8
DEFAULT
 62
     7
 66
     1
 10
0.0
 20
0.0
 30
0.0
 70
     1
  0
VERTEX
  5
1C6
  8
DEFAULT
 62
     7
 10
49.42895782098003
 20
118.7919072564545
 30
0.0
  0
VERTEX
  5
1C7
  8
DEFAULT
 62
     7
 10
49.38063609174202
 20
118.9423624697504
 30
0.0
  0
VERTEX
  5
1C8
  8
DEFAULT
 62
     7
 10
49.30388978300721
 20
119.080474070539
 30
0.0
  0
VERTEX
  5
1C9
  8
DEFAULT
 62
     7
 10
49.201696478915
 20
119.2009695098118
 30
0.0
  0
VERTEX
  5
1CA
  8
DEFAULT
 62
     7
 10
49.0779249143968
 20
119.299200155928
 30
0.0
  0
VERTEX
  5
1CB
  8
DEFAULT
 62
     7
 10
48.93737410977794
 20
119.3714292134712
 30
0.0
  0
VERTEX
  5
1CC
  8
DEFAULT
 62
     7
 10
48.78545526237073
 20
119.4148250144606
 30
0.0
  0
VERTEX
  5
1CD
  8
DEFAULT
 62
     7
 10
48.62797930149267
 20
119.4277662682456
 30
0.0
  0
VERTEX
  5
1CE
  8
DEFAULT
 62
     7
 10
48.47101935829405
 20
119.4097151535829
 30
0.0
  0
VERTEX
  5
1CF
  8
DEFAULT
 62
     7
 10
48.32055967247225
 20
119.3614057237912
 30
0.0
  0
VERTEX
  5
1D0
  8
DEFAULT
 62
     7
 10
48.1824480716837
 20
119.2846728326342
 30
0.0
  0
VERTEX
  5
1D1
  8
DEFAULT
 62
     7
 10
48.06195263241089
 20
119.1824582840438
 30
0.0
  0
VERTEX
  5
1D2
  8
DEFAULT
 62
     7
 10
47.96370074179649
 20
119.0587124365498
 30
0.0
  0
VERTEX
  5
1D3
  8
DEFAULT
 62
     7
 10
47.89148845622551
 20
118.9181610728651
 30
0.0
  0
VERTEX
  5
1D4
  8
DEFAULT
 62
     7
 10
47.84808874177598
 20
118.7662215400255
 30
0.0
  0
VERTEX
  5
1D5
  8
DEFAULT
 62
     7
 10
47.83514804705668
 20
118.6087623511197
 30
0.0
  0
VERTEX
  5
1D6
  8
DEFAULT
 62
     7
 10
47.8531986026536
 20
118.4517811634229
 30
0.0
  0
VERTEX
  5
1D7
  8
DEFAULT
 62
     7
 10
47.90150803244529
 20
118.3013427220993
 30
0.0
  0
VERTEX
  5
1D8
  8
DEFAULT
 62
     7
 10
47.97823253761619
 20
118.1632227353246
 30
0.0
  0
VERTEX
  5
1D9
  8
DEFAULT
 62
     7
 10
48.08043870022044
 20
118.0427272960518
 30
0.0
  0
VERTEX
  5
1DA
  8
DEFAULT
 62
     7
 10
48.20421417819885
 20
117.9444877048837
 30
0.0
  0
VERTEX
  5
1DB
  8
DEFAULT
 62
     7
 10
48.34474821084545
 20
117.8722670333266
 30
0.0
  0
VERTEX
  5
1DC
  8
DEFAULT
 62
     7
 10
48.49670116126289
 20
117.828871791403
 30
0.0
  0
VERTEX
  5
1DD
  8
DEFAULT
 62
     7
 10
48.65415979110297
 20
117.815930537618
 30
0.0
  0
VERTEX
  5
1DE
  8
DEFAULT
 62
     7
 10
48.81113706533957
 20
117.8339816522806
 30
0.0
  0
VERTEX
  5
1DF
  8
DEFAULT
 62
     7
 10
48.96158389264933
 20
117.8822905230066
 30
0.0
  0
VERTEX
  5
1E0
  8
DEFAULT
 62
     7
 10
49.099703879424
 20
117.9590239732293
 30
0.0
  0
VERTEX
  5
1E1
  8
DEFAULT
 62
     7
 10
49.22020826374867
 20
118.0612469078059
 30
0.0
  0
VERTEX
  5
1E2
  8
DEFAULT
 62
     7
 10
49.31842996481303
 20
118.1849927552999
 30
0.0
  0
VERTEX
  5
1E3
  8
DEFAULT
 62
     7
 10
49.39065510889606
 20
118.3255273470123
 30
0.0
  0
VERTEX
  5
1E4
  8
DEFAULT
 62
     7
 10
49.43407215438359
 20
118.4774584938658
 30
0.0
  0
VERTEX
  5
1E5
  8
DEFAULT
 62
     7
 10
49.44698713207875
 20
118.6349344547439
 30
0.0
  0
SEQEND
  5
1E6
  8
DEFAULT
 62
     7
  0
POLYLINE
  5
1E7
  8
DEFAULT
 62
     7
 66
     1
 10
0.0
 20
0.0
 30
0.0
 70
     1
  0
VERTEX
  5
1E8
  8
DEFAULT
 62
     7
 10
72.37995609564858
 20
107.3000079255924
 30
0.0
  0
VERTEX
  5
1E9
  8
DEFAULT
 62
     7
 10
72.67002847377496
 20
107.1556521195367
 30
0.0
  0
VERTEX
  5
1EA
  8
DEFAULT
 62
     7
 10
72.97034629068065
 20
107.0745596337271
 30
0.0
  0
VERTEX
  5
1EB
  8
DEFAULT
 62
     7
 10
73.263012174782
 20
107.0525078446181
 30
0.0
  0
VERTEX
  5
1EC
  8
DEFAULT
 62
     7
 10
73.55480815258953
 20
107.0840542472156
 30
0.0
  0
VERTEX
  5
1ED
  8
DEFAULT
 62
     7
 10
73.85232784545886
 20
107.1748627365472
 30
0.0
  0
VERTEX
  5
1EE
  8
DEFAULT
 62
     7
 10
74.13756318678949
 20
107.328543200106
 30
0.0
  0
VERTEX
  5
1EF
  8
DEFAULT
 62
     7
 10
74.3909670019944
 20
107.541314676282
 30
0.0
  0
VERTEX
  5
1F0
  8
DEFAULT
 62
     7
 10
74.59540392609557
 20
107.8014915729456
 30
0.0
  0
VERTEX
  5
1F1
  8
DEFAULT
 62
     7
 10
74.73974296017906
 20
108.0915851955701
 30
0.0
  0
VERTEX
  5
1F2
  8
DEFAULT
 62
     7
 10
74.82083544598854
 20
108.3918990990156
 30
0.0
  0
VERTEX
  5
1F3
  8
DEFAULT
 62
     7
 10
74.84292133810784
 20
108.684560510591
 30
0.0
  0
VERTEX
  5
1F4
  8
DEFAULT
 62
     7
 10
74.81134921848621
 20
108.9763520158726
 30
0.0
  0
VERTEX
  5
1F5
  8
DEFAULT
 62
     7
 10
74.7205491151407
 20
109.2738761812679
 30
0.0
  0
VERTEX
  5
1F6
  8
DEFAULT
 62
     7
 10
74.56684349362354
 20
109.5591159951245
 30
0.0
  0
VERTEX
  5
1F7
  8
DEFAULT
 62
     7
 10
74.35408040343373
 20
109.8125108652775
 30
0.0
  0
VERTEX
  5
1F8
  8
DEFAULT
 62
     7
 10
74.09388617573215
 20
110.0169483484444
 30
0.0
  0
VERTEX
  5
1F9
  8
DEFAULT
 62
     7
 10
73.80380932507984
 20
110.1613125404863
 30
0.0
  0
VERTEX
  5
1FA
  8
DEFAULT
 62
     7
 10
73.50351275267231
 20
110.2423966403097
 30
0.0
  0
VERTEX
  5
1FB
  8
DEFAULT
 62
     7
 10
73.21083848258483
 20
110.2644657604567
 30
0.0
  0
VERTEX
  5
1FC
  8
DEFAULT
 62
     7
 10
72.91903859131712
 20
110.2329020268212
 30
0.0
  0
VERTEX
  5
1FD
  8
DEFAULT
 62
     7
 10
72.62151442592186
 20
110.1420929784238
 30
0.0
  0
VERTEX
  5
1FE
  8
DEFAULT
 62
     7
 10
72.33629585656347
 20
109.9883963019585
 30
0.0
  0
VERTEX
  5
1FF
  8
DEFAULT
 62
     7
 10
72.08287974191225
 20
109.7756242667168
 30
0.0
  0
VERTEX
  5
200
  8
DEFAULT
 62
     7
 10
71.8784551172574
 20
109.5154557560394
 30
0.0
  0
VERTEX
  5
201
  8
DEFAULT
 62
     7
 10
71.73409931120166
 20
109.2253794644528
 30
0.0
  0
VERTEX
  5
202
  8
DEFAULT
 62
     7
 10
71.65301521137829
 20
108.9250571750212
 30
0.0
  0
VERTEX
  5
203
  8
DEFAULT
 62
     7
 10
71.63095503628311
 20
108.6323868183939
 30
0.0
  0
VERTEX
  5
204
  8
DEFAULT
 62
     7
 10
71.66249696635471
 20
108.340595872178
 30
0.0
  0
VERTEX
  5
205
  8
DEFAULT
 62
     7
 10
71.75329315624
 20
108.0430717067828
 30
0.0
  0
VERTEX
  5
206
  8
DEFAULT
 62
     7
 10
71.90699877775717
 20
107.7578318929262
 30
0.0
  0
VERTEX
  5
207
  8
DEFAULT
 62
     7
 10
72.11977081299885
 20
107.5044370227732
 30
0.0
  0
SEQEND
  5
208
  8
DEFAULT
 62
     7
  0
POLYLINE
  5
209
  8
DEFAULT
 62
     7
 66
     1
 10
0.0
 20
0.0
 30
0.0
 70
     1
  0
VERTEX
  5
20A
  8
DEFAULT
 62
     7
 10
51.48517254692333
 20
118.6680507139437
 30
0.0
  0
VERTEX
  5
20B
  8
DEFAULT
 62
     7
 10
51.53343054266681
 20
118.2481369945432
 30
0.0
  0
VERTEX
  5
20C
  8
DEFAULT
 62
     7
 10
51.66266585667702
 20
117.845728182576
 30
0.0
  0
VERTEX
  5
20D
  8
DEFAULT
 62
     7
 10
51.86794752911364
 20
117.4762483427851
 30
0.0
  0
VERTEX
  5
20E
  8
DEFAULT
 62
     7
 10
52.14135136215616
 20
117.1539256982926
 30
0.0
  0
VERTEX
  5
20F
  8
DEFAULT
 62
     7
 10
52.47237977837584
 20
116.8911295786299
 30
0.0
  0
VERTEX
  5
210
  8
DEFAULT
 62
     7
 10
52.84830900056105
 20
116.6979785146531
 30
0.0
  0
VERTEX
  5
211
  8
DEFAULT
 62
     7
 10
53.25471848697472
 20
116.5818672689254
 30
0.0
  0
VERTEX
  5
212
  8
DEFAULT
 62
     7
 10
53.67599688585019
 20
116.5472756352337
 30
0.0
  0
VERTEX
  5
213
  8
DEFAULT
 62
     7
 10
54.09588880168668
 20
116.5955252449911
 30
0.0
  0
VERTEX
  5
214
  8
DEFAULT
 62
     7
 10
54.49829314112798
 20
116.7247644724615
 30
0.0
  0
VERTEX
  5
215
  8
DEFAULT
 62
     7
 10
54.86778639849666
 20
116.9300467039639
 30
0.0
  0
VERTEX
  5
216
  8
DEFAULT
 62
     7
 10
55.19010457046323
 20
117.2034544504666
 30
0.0
  0
VERTEX
  5
217
  8
DEFAULT
 62
     7
 10
55.45292193462408
 20
117.5344783941603
 30
0.0
  0
VERTEX
  5
218
  8
DEFAULT
 62
     7
 10
55.64606461261477
 20
117.9104333333696
 30
0.0
  0
VERTEX
  5
219
  8
DEFAULT
 62
     7
 10
55.76217138581655
 20
118.3168344337972
 30
0.0
  0
VERTEX
  5
21A
  8
DEFAULT
 62
     7
 10
55.79676749203416
 20
118.7380871156486
 30
0.0
  0
VERTEX
  5
21B
  8
DEFAULT
 62
     7
 10
55.74850949629068
 20
119.1579924490628
 30
0.0
  0
VERTEX
  5
21C
  8
DEFAULT
 62
     7
 10
55.61925685124249
 20
119.5604180330023
 30
0.0
  0
VERTEX
  5
21D
  8
DEFAULT
 62
     7
 10
55.41398803731791
 20
119.9298727148348
 30
0.0
  0
VERTEX
  5
21E
  8
DEFAULT
 62
     7
 10
55.14058867680132
 20
120.2522037453134
 30
0.0
  0
VERTEX
  5
21F
  8
DEFAULT
 62
     7
 10
54.80955187459553
 20
120.5149909199243
 30
0.0
  0
VERTEX
  5
220
  8
DEFAULT
 62
     7
 10
54.43360979389825
 20
120.7081593149391
 30
0.0
  0
VERTEX
  5
221
  8
DEFAULT
 62
     7
 10
54.0272086934707
 20
120.824270001601
 30
0.0
  0
VERTEX
  5
222
  8
DEFAULT
 62
     7
 10
53.60595992507952
 20
120.8588621943584
 30
0.0
  0
VERTEX
  5
223
  8
DEFAULT
 62
     7
 10
53.18606353671711
 20
120.810604198615
 30
0.0
  0
VERTEX
  5
224
  8
DEFAULT
 62
     7
 10
52.78362509426557
 20
120.6813644120788
 30
0.0
  0
VERTEX
  5
225
  8
DEFAULT
 62
     7
 10
52.41417041243306
 20
120.4760827396422
 30
0.0
  0
VERTEX
  5
226
  8
DEFAULT
 62
     7
 10
52.09182652344239
 20
120.2026917651117
 30
0.0
  0
VERTEX
  5
227
  8
DEFAULT
 62
     7
 10
51.82903487630565
 20
119.87165049038
 30
0.0
  0
VERTEX
  5
228
  8
DEFAULT
 62
     7
 10
51.63586648129083
 20
119.4957044962225
 30
0.0
  0
VERTEX
  5
229
  8
DEFAULT
 62
     7
 10
51.51978989763911
 20
119.089303395795
 30
0.0
  0
SEQEND
  5
22A
  8
DEFAULT
 62
     7
  0
POLYLINE
  5
22B
  8
DEFAULT
 62
     7
 66
     1
 10
0.0
 20
0.0
 30
0.0
 70
     1
  0
VERTEX
  5
22C
  8
DEFAULT
 62
     7
 10
97.91977257905027
 20
58.31034104261428
 30
0.0
  0
VERTEX
  5
22D
  8
DEFAULT
 62
     7
 10
98.31708830211214
 20
58.16624967465428
 30
0.0
  0
VERTEX
  5
22E
  8
DEFAULT
 62
     7
 10
98.73493739172909
 20
58.10242728866655
 30
0.0
  0
VERTEX
  5
22F
  8
DEFAULT
 62
     7
 10
99.15717123395687
 20
58.12136564066101
 30
0.0
  0
VERTEX
  5
230
  8
DEFAULT
 62
     7
 10
99.56761605689293
 20
58.22230048776903
 30
0.0
  0
VERTEX
  5
231
  8
DEFAULT
 62
     7
 10
99.95048048960186
 20
58.40138433955737
 30
0.0
  0
VERTEX
  5
232
  8
DEFAULT
 62
     7
 10
100.2910504808323
 20
58.65169148961991
 30
0.0
  0
VERTEX
  5
233
  8
DEFAULT
 62
     7
 10
100.5762220886684
 20
58.96365352779031
 30
0.0
  0
VERTEX
  5
234
  8
DEFAULT
 62
     7
 10
100.7950935311502
 20
59.32524718623112
 30
0.0
  0
VERTEX
  5
235
  8
DEFAULT
 62
     7
 10
100.9391932850963
 20
59.72260148482915
 30
0.0
  0
VERTEX
  5
236
  8
DEFAULT
 62
     7
 10
101.003002812572
 20
60.14042485742196
 30
0.0
  0
VERTEX
  5
237
  8
DEFAULT
 62
     7
 10
100.9840734056295
 20
60.56267155816179
 30
0.0
  0
VERTEX
  5
238
  8
DEFAULT
 62
     7
 10
100.8831296134695
 20
60.97311582203209
 30
0.0
  0
VERTEX
  5
239
  8
DEFAULT
 62
     7
 10
100.7040541476673
 20
61.35597242782065
 30
0.0
  0
VERTEX
  5
23A
  8
DEFAULT
 62
     7
 10
100.4537386116187
 20
61.69654185998533
 30
0.0
  0
VERTEX
  5
23B
  8
DEFAULT
 62
     7
 10
100.1417810459742
 20
61.98172632633348
 30
0.0
  0
VERTEX
  5
23C
  8
DEFAULT
 62
     7
 10
99.78019130099358
 20
62.20058491030326
 30
0.0
  0
VERTEX
  5
23D
  8
DEFAULT
 62
     7
 10
99.38284147492149
 20
62.34468075078917
 30
0.0
  0
VERTEX
  5
23E
  8
DEFAULT
 62
     7
 10
98.96502648831482
 20
62.40849419172509
 30
0.0
  0
VERTEX
  5
23F
  8
DEFAULT
 62
     7
 10
98.54275854307679
 20
62.38956925730842
 30
0.0
  0
VERTEX
  5
240
  8
DEFAULT
 62
     7
 10
98.1323399962306
 20
62.28862546514853
 30
0.0
  0
VERTEX
  5
241
  8
DEFAULT
 62
     7
 10
97.74947500445593
 20
62.10955447187224
 30
0.0
  0
VERTEX
  5
242
  8
DEFAULT
 62
     7
 10
97.40889662723939
 20
61.85923446329765
 30
0.0
  0
VERTEX
  5
243
  8
DEFAULT
 62
     7
 10
97.12370768836531
 20
61.5472852836393
 30
0.0
  0
VERTEX
  5
244
  8
DEFAULT
 62
     7
 10
96.90485357692147
 20
61.18567876668644
 30
0.0
  0
VERTEX
  5
245
  8
DEFAULT
 62
     7
 10
96.7607705949476
 20
60.78832894061435
 30
0.0
  0
VERTEX
  5
246
  8
DEFAULT
 62
     7
 10
96.69693590951351
 20
60.37050109549561
 30
0.0
  0
VERTEX
  5
247
  8
DEFAULT
 62
     7
 10
96.71588208842833
 20
59.94825886728172
 30
0.0
  0
VERTEX
  5
248
  8
DEFAULT
 62
     7
 10
96.81681693553637
 20
59.53782690285772
 30
0.0
  0
VERTEX
  5
249
  8
DEFAULT
 62
     7
 10
96.99588457441823
 20
59.15495799762284
 30
0.0
  0
VERTEX
  5
24A
  8
DEFAULT
 62
     7
 10
97.246208496453
 20
58.81439247891836
 30
0.0
  0
VERTEX
  5
24B
  8
DEFAULT
 62
     7
 10
97.55817444808358
 20
58.52921248509615
 30
0.0
  0
SEQEND
  5
24C
  8
DEFAULT
 62
     7
  0
POLYLINE
  5
24D
  8
DEFAULT
 62
     7
 66
     1
 10
0.0
 20
0.0
 30
0.0
 70
     1
  0
VERTEX
  5
24E
  8
DEFAULT
 62
     7
 10
71.13038825674604
 20
113.1615477874801
 30
0.0
  0
VERTEX
  5
24F
  8
DEFAULT
 62
     7
 10
71.28083061152985
 20
113.2098488312856
 30
0.0
  0
VERTEX
  5
250
  8
DEFAULT
 62
     7
 10
71.41895115737027
 20
113.2865906674945
 30
0.0
  0
VERTEX
  5
251
  8
DEFAULT
 62
     7
 10
71.53944659664309
 20
113.388813602071
 30
0.0
  0
VERTEX
  5
252
  8
DEFAULT
 62
     7
 10
71.6376811562195
 20
113.5125678355512
 30
0.0
  0
VERTEX
  5
253
  8
DEFAULT
 62
     7
 10
71.70989344179048
 20
113.6531018681978
 30
0.0
  0
VERTEX
  5
254
  8
DEFAULT
 62
     7
 10
71.753310487278
 20
113.8050419601032
 30
0.0
  0
VERTEX
  5
255
  8
DEFAULT
 62
     7
 10
71.76622155151298
 20
113.9625179209813
 30
0.0
  0
VERTEX
  5
256
  8
DEFAULT
 62
     7
 10
71.74821348491244
 20
114.1194823367058
 30
0.0
  0
VERTEX
  5
257
  8
DEFAULT
 62
     7
 10
71.6998872831485
 20
114.2699375500017
 30
0.0
  0
VERTEX
  5
258
  8
DEFAULT
 62
     7
 10
71.62315383292574
 20
114.4080402057384
 30
0.0
  0
VERTEX
  5
259
  8
DEFAULT
 62
     7
 10
71.5209521428474
 20
114.5285445900631
 30
0.0
  0
VERTEX
  5
25A
  8
DEFAULT
 62
     7
 10
71.39718505085514
 20
114.6267925672173
 30
0.0
  0
VERTEX
  5
25B
  8
DEFAULT
 62
     7
 10
71.25662530118441
 20
114.6990042937225
 30
0.0
  0
VERTEX
  5
25C
  8
DEFAULT
 62
     7
 10
71.10471539882906
 20
114.742408480698
 30
0.0
  0
VERTEX
  5
25D
  8
DEFAULT
 62
     7
 10
70.94723496542507
 20
114.7553407894311
 30
0.0
  0
VERTEX
  5
25E
  8
DEFAULT
 62
     7
 10
70.7902621637144
 20
114.7372986198204
 30
0.0
  0
VERTEX
  5
25F
  8
DEFAULT
 62
     7
 10
70.63980695041853
 20
114.6889981350805
 30
0.0
  0
VERTEX
  5
260
  8
DEFAULT
 62
     7
 10
70.50169926309017
 20
114.6122562988717
 30
0.0
  0
VERTEX
  5
261
  8
DEFAULT
 62
     7
 10
70.38121220980348
 20
114.5100333642951
 30
0.0
  0
VERTEX
  5
262
  8
DEFAULT
 62
     7
 10
70.28295193320295
 20
114.3862785717492
 30
0.0
  0
VERTEX
  5
263
  8
DEFAULT
 62
     7
 10
70.21074859268386
 20
114.2457529250887
 30
0.0
  0
VERTEX
  5
264
  8
DEFAULT
 62
     7
 10
70.16733993318243
 20
114.0937960612111
 30
0.0
  0
VERTEX
  5
265
  8
DEFAULT
 62
     7
 10
70.15439923846316
 20
113.9363284863191
 30
0.0
  0
VERTEX
  5
266
  8
DEFAULT
 62
     7
 10
70.17244979406006
 20
113.7793562436742
 30
0.0
  0
VERTEX
  5
267
  8
DEFAULT
 62
     7
 10
70.22075083786564
 20
113.6289178023506
 30
0.0
  0
VERTEX
  5
268
  8
DEFAULT
 62
     7
 10
70.29748372902264
 20
113.490806201562
 30
0.0
  0
VERTEX
  5
269
  8
DEFAULT
 62
     7
 10
70.39969827761304
 20
113.3703018172373
 30
0.0
  0
VERTEX
  5
26A
  8
DEFAULT
 62
     7
 10
70.52346145614513
 20
113.2720543991489
 30
0.0
  0
VERTEX
  5
26B
  8
DEFAULT
 62
     7
 10
70.66399996131767
 20
113.1998337275918
 30
0.0
  0
VERTEX
  5
26C
  8
DEFAULT
 62
     7
 10
70.81594340761751
 20
113.1564379266024
 30
0.0
  0
VERTEX
  5
26D
  8
DEFAULT
 62
     7
 10
70.97341098250944
 20
113.1435056178692
 30
0.0
  0
SEQEND
  5
26E
  8
DEFAULT
 62
     7
  0
POLYLINE
  5
26F
  8
DEFAULT
 62
     7
 66
     1
 10
0.0
 20
0.0
 30
0.0
 70
     1
  0
VERTEX
  5
270
  8
DEFAULT
 62
     7
 10
25.75136640093245
 20
24.90748517643979
 30
0.0
  0
VERTEX
  5
271
  8
DEFAULT
 62
     7
 10
26.06684943514303
 20
24.98130309882044
 30
0.0
  0
VERTEX
  5
272
  8
DEFAULT
 62
     7
 10
26.34988652997793
 20
25.11037628376561
 30
0.0
  0
VERTEX
  5
273
  8
DEFAULT
 62
     7
 10
26.58937855327051
 20
25.28001919237667
 30
0.0
  0
VERTEX
  5
274
  8
DEFAULT
 62
     7
 10
26.7940016462636
 20
25.49043252925483
 30
0.0
  0
VERTEX
  5
275
  8
DEFAULT
 62
     7
 10
26.96526081393344
 20
25.75011465273716
 30
0.0
  0
VERTEX
  5
276
  8
DEFAULT
 62
     7
 10
27.08693420472366
 20
26.05041346140767
 30
0.0
  0
VERTEX
  5
277
  8
DEFAULT
 62
     7
 10
27.14642047682009
 20
26.3758903548139
 30
0.0
  0
VERTEX
  5
278
  8
DEFAULT
 62
     7
 10
27.13793441792935
 20
26.70667110491007
 30
0.0
  0
VERTEX
  5
279
  8
DEFAULT
 62
     7
 10
27.06411202302276
 20
27.02217761988178
 30
0.0
  0
VERTEX
  5
27A
  8
DEFAULT
 62
     7
 10
26.93504554686649
 20
27.30521471471669
 30
0.0
  0
VERTEX
  5
27B
  8
DEFAULT
 62
     7
 10
26.76539369320356
 20
27.54469164323424
 30
0.0
  0
VERTEX
  5
27C
  8
DEFAULT
 62
     7
 10
26.5549870651143
 20
27.74932535847642
 30
0.0
  0
VERTEX
  5
27D
  8
DEFAULT
 62
     7
 10
26.29530717789494
 20
27.92057222669995
 30
0.0
  0
VERTEX
  5
27E
  8
DEFAULT
 62
     7
 10
25.99501731427629
 20
28.04223611337256
 30
0.0
  0
VERTEX
  5
27F
  8
DEFAULT
 62
     7
 10
25.66950855412279
 20
28.10172518079771
 30
0.0
  0
VERTEX
  5
280
  8
DEFAULT
 62
     7
 10
25.33874233973591
 20
28.09325198041902
 30
0.0
  0
VERTEX
  5
281
  8
DEFAULT
 62
     7
 10
25.02325483299941
 20
28.01944468028745
 30
0.0
  0
VERTEX
  5
282
  8
DEFAULT
 62
     7
 10
24.74021606096728
 20
27.89037149534228
 30
0.0
  0
VERTEX
  5
283
  8
DEFAULT
 62
     7
 10
24.50071509262284
 20
27.72071125569324
 30
0.0
  0
VERTEX
  5
284
  8
DEFAULT
 62
     7
 10
24.29610933066773
 20
27.51030854106416
 30
0.0
  0
VERTEX
  5
285
  8
DEFAULT
 62
     7
 10
24.12484792673492
 20
27.25062026785868
 30
0.0
  0
VERTEX
  5
286
  8
DEFAULT
 62
     7
 10
24.00316000023542
 20
26.95032145918817
 30
0.0
  0
VERTEX
  5
287
  8
DEFAULT
 62
     7
 10
23.94369497263717
 20
26.62481940782356
 30
0.0
  0
VERTEX
  5
288
  8
DEFAULT
 62
     7
 10
23.95217432273901
 20
26.29406381568577
 30
0.0
  0
VERTEX
  5
289
  8
DEFAULT
 62
     7
 10
24.02597547314742
 20
25.97856568670017
 30
0.0
  0
VERTEX
  5
28A
  8
DEFAULT
 62
     7
 10
24.15504865809259
 20
25.69552691466804
 30
0.0
  0
VERTEX
  5
28B
  8
DEFAULT
 62
     7
 10
24.32470833867589
 20
25.45604327736159
 30
0.0
  0
VERTEX
  5
28C
  8
DEFAULT
 62
     7
 10
24.53512167555407
 20
25.25142242063146
 30
0.0
  0
VERTEX
  5
28D
  8
DEFAULT
 62
     7
 10
24.79480994875955
 20
25.08016716642182
 30
0.0
  0
VERTEX
  5
28E
  8
DEFAULT
 62
     7
 10
25.09510037144393
 20
24.95848818497418
 30
0.0
  0
VERTEX
  5
28F
  8
DEFAULT
 62
     7
 10
25.42059180055945
 20
24.89900973979813
 30
0.0
  0
SEQEND
  5
290
  8
DEFAULT
 62
     7
  0
POLYLINE
  5
291
  8
DEFAULT
 62
     7
 66
     1
 10
0.0
 20
0.0
 30
0.0
 70
     1
  0
VERTEX
  5
292
  8
DEFAULT
 62
     7
 10
9.099773308512649
 20
85.21925697485298
 30
0.0
  0
VERTEX
  5
293
  8
DEFAULT
 62
     7
 10
8.94607663204736
 20
85.50449678870952
 30
0.0
  0
VERTEX
  5
294
  8
DEFAULT
 62
     7
 10
8.733313541857532
 20
85.75790060391444
 30
0.0
  0
VERTEX
  5
295
  8
DEFAULT
 62
     7
 10
8.473135527062464
 20
85.96232075604337
 30
0.0
  0
VERTEX
  5
296
  8
DEFAULT
 62
     7
 10
8.18304749509533
 20
86.10666817611298
 30
0.0
  0
VERTEX
  5
297
  8
DEFAULT
 62
     7
 10
7.882741977635922
 20
86.18775227593635
 30
0.0
  0
VERTEX
  5
298
  8
DEFAULT
 62
     7
 10
7.590081684191991
 20
86.20981245103154
 30
0.0
  0
VERTEX
  5
299
  8
DEFAULT
 62
     7
 10
7.298276761332606
 20
86.17825766244788
 30
0.0
  0
VERTEX
  5
29A
  8
DEFAULT
 62
     7
 10
7.000748682477139
 20
86.08746538602277
 30
0.0
  0
VERTEX
  5
29B
  8
DEFAULT
 62
     7
 10
6.715528435921541
 20
85.93376870955748
 30
0.0
  0
VERTEX
  5
29C
  8
DEFAULT
 62
     7
 10
6.462119030059225
 20
85.7209966743158
 30
0.0
  0
VERTEX
  5
29D
  8
DEFAULT
 62
     7
 10
6.257710618310877
 20
85.46081139166608
 30
0.0
  0
VERTEX
  5
29E
  8
DEFAULT
 62
     7
 10
6.113353135057912
 20
85.17073454101377
 30
0.0
  0
VERTEX
  5
29F
  8
DEFAULT
 62
     7
 10
6.032266798971571
 20
84.870421196634
 30
0.0
  0
VERTEX
  5
2A0
  8
DEFAULT
 62
     7
 10
6.010199356021744
 20
84.57775922599282
 30
0.0
  0
VERTEX
  5
2A1
  8
DEFAULT
 62
     7
 10
6.041765884985974
 20
84.285968279777
 30
0.0
  0
VERTEX
  5
2A2
  8
DEFAULT
 62
     7
 10
6.132558720476828
 20
83.98843516932985
 30
0.0
  0
VERTEX
  5
2A3
  8
DEFAULT
 62
     7
 10
6.28626378292824
 20
83.70319535547331
 30
0.0
  0
VERTEX
  5
2A4
  8
DEFAULT
 62
     7
 10
6.49902631405233
 20
83.44980943037211
 30
0.0
  0
VERTEX
  5
2A5
  8
DEFAULT
 62
     7
 10
6.759204328847397
 20
83.24538033319132
 30
0.0
  0
VERTEX
  5
2A6
  8
DEFAULT
 62
     7
 10
7.049247076489467
 20
83.10103291312173
 30
0.0
  0
VERTEX
  5
2A7
  8
DEFAULT
 62
     7
 10
7.349582783498918
 20
83.01994042731222
 30
0.0
  0
VERTEX
  5
2A8
  8
DEFAULT
 62
     7
 10
7.642250344797491
 20
82.99787130716517
 30
0.0
  0
VERTEX
  5
2A9
  8
DEFAULT
 62
     7
 10
7.934047440736493
 20
83.0294350408007
 30
0.0
  0
VERTEX
  5
2AA
  8
DEFAULT
 62
     7
 10
8.231583346512341
 20
83.12024408919805
 30
0.0
  0
VERTEX
  5
2AB
  8
DEFAULT
 62
     7
 10
8.51680415213368
 20
83.27393237967722
 30
0.0
  0
VERTEX
  5
2AC
  8
DEFAULT
 62
     7
 10
8.770212998930255
 20
83.48670441491892
 30
0.0
  0
VERTEX
  5
2AD
  8
DEFAULT
 62
     7
 10
8.974635946387885
 20
83.74688969756863
 30
0.0
  0
VERTEX
  5
2AE
  8
DEFAULT
 62
     7
 10
9.118986161786207
 20
84.03695760316906
 30
0.0
  0
VERTEX
  5
2AF
  8
DEFAULT
 62
     7
 10
9.200080883858673
 20
84.3372798926007
 30
0.0
  0
VERTEX
  5
2B0
  8
DEFAULT
 62
     7
 10
9.222148326808501
 20
84.62994130417613
 30
0.0
  0
VERTEX
  5
2B1
  8
DEFAULT
 62
     7
 10
9.190573411858148
 20
84.92173280945772
 30
0.0
  0
SEQEND
  5
2B2
  8
DEFAULT
 62
     7
  0
POLYLINE
  5
2B3
  8
DEFAULT
 62
     7
 66
     1
 10
0.0
 20
0.0
 30
0.0
 70
     1
  0
VERTEX
  5
2B4
  8
DEFAULT
 62
     7
 10
100.9242986556104
 20
58.08601870915253
 30
0.0
  0
VERTEX
  5
2B5
  8
DEFAULT
 62
     7
 10
100.8225022881947
 20
57.79207759609476
 30
0.0
  0
VERTEX
  5
2B6
  8
DEFAULT
 62
     7
 10
100.7801390816299
 20
57.50165524281417
 30
0.0
  0
VERTEX
  5
2B7
  8
DEFAULT
 62
     7
 10
100.7913315777754
 20
57.20837494546287
 30
0.0
  0
VERTEX
  5
2B8
  8
DEFAULT
 62
     7
 10
100.8612147954672
 20
56.90525509106058
 30
0.0
  0
VERTEX
  5
2B9
  8
DEFAULT
 62
     7
 10
100.9946939775214
 20
56.61001694548244
 30
0.0
  0
VERTEX
  5
2BA
  8
DEFAULT
 62
     7
 10
101.1893209750558
 20
56.3424184511
 30
0.0
  0
VERTEX
  5
2BB
  8
DEFAULT
 62
     7
 10
101.4346289592576
 20
56.12039555503313
 30
0.0
  0
VERTEX
  5
2BC
  8
DEFAULT
 62
     7
 10
101.7139655979493
 20
55.95621415965113
 30
0.0
  0
VERTEX
  5
2BD
  8
DEFAULT
 62
     7
 10
102.0079150969932
 20
55.85442617822152
 30
0.0
  0
VERTEX
  5
2BE
  8
DEFAULT
 62
     7
 10
102.2983586947719
 20
55.81206297165678
 30
0.0
  0
VERTEX
  5
2BF
  8
DEFAULT
 62
     7
 10
102.591617747625
 20
55.82323366423837
 30
0.0
  0
VERTEX
  5
2C0
  8
DEFAULT
 62
     7
 10
102.8947633190514
 20
55.89312582698198
 30
0.0
  0
VERTEX
  5
2C1
  8
DEFAULT
 62
     7
 10
103.1899925195777
 20
56.02660500903617
 30
0.0
  0
VERTEX
  5
2C2
  8
DEFAULT
 62
     7
 10
103.4575742419879
 20
56.22123200657064
 30
0.0
  0
VERTEX
  5
2C3
  8
DEFAULT
 62
     7
 10
103.6796189416187
 20
56.46656123527056
 30
0.0
  0
VERTEX
  5
2C4
  8
DEFAULT
 62
     7
 10
103.843799777935
 20
56.74589787396226
 30
0.0
  0
VERTEX
  5
2C5
  8
DEFAULT
 62
     7
 10
103.9455961453507
 20
57.03983898702005
 30
0.0
  0
VERTEX
  5
2C6
  8
DEFAULT
 62
     7
 10
103.9879599109812
 20
57.33026134030063
 30
0.0
  0
VERTEX
  5
2C7
  8
DEFAULT
 62
     7
 10
103.9767758008218
 20
57.62354555111212
 30
0.0
  0
VERTEX
  5
2C8
  8
DEFAULT
 62
     7
 10
103.906884197144
 20
57.92666596458014
 30
0.0
  0
VERTEX
  5
2C9
  8
DEFAULT
 62
     7
 10
103.7734050150897
 20
58.22190355109254
 30
0.0
  0
VERTEX
  5
2CA
  8
DEFAULT
 62
     7
 10
103.5787864035414
 20
58.48949757294905
 30
0.0
  0
VERTEX
  5
2CB
  8
DEFAULT
 62
     7
 10
103.3334527023155
 20
58.71152102808166
 30
0.0
  0
VERTEX
  5
2CC
  8
DEFAULT
 62
     7
 10
103.0541160636238
 20
58.87570689598961
 30
0.0
  0
VERTEX
  5
2CD
  8
DEFAULT
 62
     7
 10
102.7601665645799
 20
58.97749431835346
 30
0.0
  0
VERTEX
  5
2CE
  8
DEFAULT
 62
     7
 10
102.4697486838253
 20
59.01987038343026
 30
0.0
  0
VERTEX
  5
2CF
  8
DEFAULT
 62
     7
 10
102.1764728589999
 20
59.00868291887642
 30
0.0
  0
VERTEX
  5
2D0
  8
DEFAULT
 62
     7
 10
101.8733267285078
 20
58.93879075613282
 30
0.0
  0
VERTEX
  5
2D1
  8
DEFAULT
 62
     7
 10
101.5781148590195
 20
58.80531996006474
 30
0.0
  0
VERTEX
  5
2D2
  8
DEFAULT
 62
     7
 10
101.3105163646371
 20
58.61068849000434
 30
0.0
  0
VERTEX
  5
2D3
  8
DEFAULT
 62
     7
 10
101.0884800509924
 20
58.36536373383035
 30
0.0
  0
SEQEND
  5
2D4
  8
DEFAULT
 62
     7
  0
POLYLINE
  5
2D5
  8
DEFAULT
 62
     7
 66
     1
 10
0.0
 20
0.0
 30
0.0
 70
     1
  0
VERTEX
  5
2D6
  8
DEFAULT
 62
     7
 10
103.4956974939689
 20
59.26150586477588
 30
0.0
  0
VERTEX
  5
2D7
  8
DEFAULT
 62
     7
 10
103.6442591515982
 20
59.20764323497352
 30
0.0
  0
VERTEX
  5
2D8
  8
DEFAULT
 62
     7
 10
103.8004386390216
 20
59.18378734071652
 30
0.0
  0
VERTEX
  5
2D9
  8
DEFAULT
 62
     7
 10
103.9582986780641
 20
59.19085057729507
 30
0.0
  0
VERTEX
  5
2DA
  8
DEFAULT
 62
     7
 10
104.1117309164337
 20
59.22858639671713
 30
0.0
  0
VERTEX
  5
2DB
  8
DEFAULT
 62
     7
 10
104.2548500690691
 20
59.29553060580562
 30
0.0
  0
VERTEX
  5
2DC
  8
DEFAULT
 62
     7
 10
104.3821873548868
 20
59.38911653374117
 30
0.0
  0
VERTEX
  5
2DD
  8
DEFAULT
 62
     7
 10
104.488786656088
 20
59.50573876555665
 30
0.0
  0
VERTEX
  5
2DE
  8
DEFAULT
 62
     7
 10
104.5706126361504
 20
59.64090297175583
 30
0.0
  0
VERTEX
  5
2DF
  8
DEFAULT
 62
     7
 10
104.6244752659528
 20
59.789456243399
 30
0.0
  0
VERTEX
  5
2E0
  8
DEFAULT
 62
     7
 10
104.6483272467496
 20
59.94565697532062
 30
0.0
  0
VERTEX
  5
2E1
  8
DEFAULT
 62
     7
 10
104.6412550651192
 20
60.10351254183717
 30
0.0
  0
VERTEX
  5
2E2
  8
DEFAULT
 62
     7
 10
104.6035069462508
 20
60.2569324807604
 30
0.0
  0
VERTEX
  5
2E3
  8
DEFAULT
 62
     7
 10
104.5365666506225
 20
60.40006840536812
 30
0.0
  0
VERTEX
  5
2E4
  8
DEFAULT
 62
     7
 10
104.4429941402648
 20
60.52738444668764
 30
0.0
  0
VERTEX
  5
2E5
  8
DEFAULT
 62
     7
 10
104.3263797353697
 20
60.63399660640095
 30
0.0
  0
VERTEX
  5
2E6
  8
DEFAULT
 62
     7
 10
104.1911942846723
 20
60.71580972795127
 30
0.0
  0
VERTEX
  5
2E7
  8
DEFAULT
 62
     7
 10
104.042649958081
 20
60.76968074373975
 30
0.0
  0
VERTEX
  5
2E8
  8
DEFAULT
 62
     7
 10
103.8864615256057
 20
60.79353663799674
 30
0.0
  0
VERTEX
  5
2E9
  8
DEFAULT
 62
     7
 10
103.728602045629
 20
60.78646054290615
 30
0.0
  0
VERTEX
  5
2EA
  8
DEFAULT
 62
     7
 10
103.5751608622076
 20
60.74872975507576
 30
0.0
  0
VERTEX
  5
2EB
  8
DEFAULT
 62
     7
 10
103.4320417095721
 20
60.68178107346133
 30
0.0
  0
VERTEX
  5
2EC
  8
DEFAULT
 62
     7
 10
103.3047301407785
 20
60.5881996180517
 30
0.0
  0
VERTEX
  5
2ED
  8
DEFAULT
 62
     7
 10
103.198114067605
 20
60.47158968568256
 30
0.0
  0
VERTEX
  5
2EE
  8
DEFAULT
 62
     7
 10
103.116313245501
 20
60.3364042349852
 30
0.0
  0
VERTEX
  5
2EF
  8
DEFAULT
 62
     7
 10
103.0624422297125
 20
60.18785543586795
 30
0.0
  0
VERTEX
  5
2F0
  8
DEFAULT
 62
     7
 10
103.0385734769435
 20
60.03165861740653
 30
0.0
  0
VERTEX
  5
2F1
  8
DEFAULT
 62
     7
 10
103.0456534854943
 20
59.87380752341589
 30
0.0
  0
VERTEX
  5
2F2
  8
DEFAULT
 62
     7
 10
103.0833932183765
 20
59.7203663399945
 30
0.0
  0
VERTEX
  5
2F3
  8
DEFAULT
 62
     7
 10
103.1503167420325
 20
59.57725165988496
 30
0.0
  0
VERTEX
  5
2F4
  8
DEFAULT
 62
     7
 10
103.2438892523903
 20
59.44993114603951
 30
0.0
  0
VERTEX
  5
2F5
  8
DEFAULT
 62
     7
 10
103.3605120432715
 20
59.34331060034008
 30
0.0
  0
SEQEND
  5
2F6
  8
DEFAULT
 62
     7
  0
POLYLINE
  5
2F7
  8
DEFAULT
 62
     7
 66
     1
 10
0.0
 20
0.0
 30
0.0
 70
     1
  0
VERTEX
  5
2F8
  8
DEFAULT
 62
     7
 10
56.51003362826653
 20
72.28446822606034
 30
0.0
  0
VERTEX
  5
2F9
  8
DEFAULT
 62
     7
 10
56.54462078943227
 20
72.70572090791173
 30
0.0
  0
VERTEX
  5
2FA
  8
DEFAULT
 62
     7
 10
56.49635440770265
 20
73.12562176880004
 30
0.0
  0
VERTEX
  5
2FB
  8
DEFAULT
 62
     7
 10
56.3671023217202
 20
73.52805573872564
 30
0.0
  0
VERTEX
  5
2FC
  8
DEFAULT
 62
     7
 10
56.16182009021784
 20
73.89752327907021
 30
0.0
  0
VERTEX
  5
2FD
  8
DEFAULT
 62
     7
 10
55.88841681624104
 20
74.21985430954884
 30
0.0
  0
VERTEX
  5
2FE
  8
DEFAULT
 62
     7
 10
55.55738840002137
 20
74.48264595668559
 30
0.0
  0
VERTEX
  5
2FF
  8
DEFAULT
 62
     7
 10
55.18143346081204
 20
74.67581435170038
 30
0.0
  0
VERTEX
  5
300
  8
DEFAULT
 62
     7
 10
54.77504074637064
 20
74.79190826639011
 30
0.0
  0
VERTEX
  5
301
  8
DEFAULT
 62
     7
 10
54.35378415105906
 20
74.82649990008177
 30
0.0
  0
VERTEX
  5
302
  8
DEFAULT
 62
     7
 10
53.93386595913272
 20
74.77825029032444
 30
0.0
  0
VERTEX
  5
303
  8
DEFAULT
 62
     7
 10
53.53145770623123
 20
74.64899373181605
 30
0.0
  0
VERTEX
  5
304
  8
DEFAULT
 62
     7
 10
53.16197730737461
 20
74.44372044536554
 30
0.0
  0
VERTEX
  5
305
  8
DEFAULT
 62
     7
 10
52.8396546628821
 20
74.1703126988628
 30
0.0
  0
VERTEX
  5
306
  8
DEFAULT
 62
     7
 10
52.57684624377313
 20
73.83928428264315
 30
0.0
  0
VERTEX
  5
307
  8
DEFAULT
 62
     7
 10
52.38368176221851
 20
73.46332487090788
 30
0.0
  0
VERTEX
  5
308
  8
DEFAULT
 62
     7
 10
52.26759232005472
 20
73.05691985702016
 30
0.0
  0
VERTEX
  5
309
  8
DEFAULT
 62
     7
 10
52.232987827851
 20
72.63565431665673
 30
0.0
  0
VERTEX
  5
30A
  8
DEFAULT
 62
     7
 10
52.28125420958059
 20
72.21575345576836
 30
0.0
  0
VERTEX
  5
30B
  8
DEFAULT
 62
     7
 10
52.41049399611673
 20
71.81332787182889
 30
0.0
  0
VERTEX
  5
30C
  8
DEFAULT
 62
     7
 10
52.61577566855336
 20
71.44385641802414
 30
0.0
  0
VERTEX
  5
30D
  8
DEFAULT
 62
     7
 10
52.88917502906995
 20
71.12152482847976
 30
0.0
  0
VERTEX
  5
30E
  8
DEFAULT
 62
     7
 10
53.22023307577393
 20
70.85873765386897
 30
0.0
  0
VERTEX
  5
30F
  8
DEFAULT
 62
     7
 10
53.59618410152306
 20
70.6655821173662
 30
0.0
  0
VERTEX
  5
310
  8
DEFAULT
 62
     7
 10
54.00257234343854
 20
70.54947143070424
 30
0.0
  0
VERTEX
  5
311
  8
DEFAULT
 62
     7
 10
54.42384179726216
 20
70.51488371047276
 30
0.0
  0
VERTEX
  5
312
  8
DEFAULT
 62
     7
 10
54.84373427216439
 20
70.56314617874217
 30
0.0
  0
VERTEX
  5
313
  8
DEFAULT
 62
     7
 10
55.24615538357794
 20
70.69239826472463
 30
0.0
  0
VERTEX
  5
314
  8
DEFAULT
 62
     7
 10
55.61563130990864
 20
70.89767602370105
 30
0.0
  0
VERTEX
  5
315
  8
DEFAULT
 62
     7
 10
55.93795842692707
 20
71.17107929767785
 30
0.0
  0
VERTEX
  5
316
  8
DEFAULT
 62
     7
 10
56.20075846004993
 20
71.50212057240957
 30
0.0
  0
VERTEX
  5
317
  8
DEFAULT
 62
     7
 10
56.3939223825388
 20
71.87806712563277
 30
0.0
  0
SEQEND
  5
318
  8
DEFAULT
 62
     7
  0
POLYLINE
  5
319
  8
DEFAULT
 62
     7
 66
     1
 10
0.0
 20
0.0
 30
0.0
 70
     1
  0
VERTEX
  5
31A
  8
DEFAULT
 62
     7
 10
78.92836860011079
 20
65.97826256813157
 30
0.0
  0
VERTEX
  5
31B
  8
DEFAULT
 62
     7
 10
78.84726716924943
 20
65.67794475122585
 30
0.0
  0
VERTEX
  5
31C
  8
DEFAULT
 62
     7
 10
78.82520699415421
 20
65.38528333965043
 30
0.0
  0
VERTEX
  5
31D
  8
DEFAULT
 62
     7
 10
78.85677072778977
 20
65.09349183436883
 30
0.0
  0
VERTEX
  5
31E
  8
DEFAULT
 62
     7
 10
78.94757921712139
 20
64.79595928298744
 30
0.0
  0
VERTEX
  5
31F
  8
DEFAULT
 62
     7
 10
79.10125968068014
 20
64.510727855117
 30
0.0
  0
VERTEX
  5
320
  8
DEFAULT
 62
     7
 10
79.31405687388023
 20
64.2573201264519
 30
0.0
  0
VERTEX
  5
321
  8
DEFAULT
 62
     7
 10
79.5742080535197
 20
64.05289550179705
 30
0.0
  0
VERTEX
  5
322
  8
DEFAULT
 62
     7
 10
79.86430167614425
 20
63.90854808172744
 30
0.0
  0
VERTEX
  5
323
  8
DEFAULT
 62
     7
 10
80.16461557958978
 20
63.82746006844388
 30
0.0
  0
VERTEX
  5
324
  8
DEFAULT
 62
     7
 10
80.45728537715132
 20
63.80539933428295
 30
0.0
  0
VERTEX
  5
325
  8
DEFAULT
 62
     7
 10
80.74906849644678
 20
63.83695468193235
 30
0.0
  0
VERTEX
  5
326
  8
DEFAULT
 62
     7
 10
81.0466094338143
 20
63.92776317126397
 30
0.0
  0
VERTEX
  5
327
  8
DEFAULT
 62
     7
 10
81.33184086168473
 20
64.08146040679499
 30
0.0
  0
VERTEX
  5
328
  8
DEFAULT
 62
     7
 10
81.58522734585165
 20
64.29422796951076
 30
0.0
  0
VERTEX
  5
329
  8
DEFAULT
 62
     7
 10
81.78966482901856
 20
64.55441325216047
 30
0.0
  0
VERTEX
  5
32A
  8
DEFAULT
 62
     7
 10
81.93402063507429
 20
64.84448563028684
 30
0.0
  0
VERTEX
  5
32B
  8
DEFAULT
 62
     7
 10
82.01512150686992
 20
65.14481239224442
 30
0.0
  0
VERTEX
  5
32C
  8
DEFAULT
 62
     7
 10
82.03717329597897
 20
65.43747380381983
 30
0.0
  0
VERTEX
  5
32D
  8
DEFAULT
 62
     7
 10
82.00561012140919
 20
65.72926530910144
 30
0.0
  0
VERTEX
  5
32E
  8
DEFAULT
 62
     7
 10
81.91479268702571
 20
66.02678500197078
 30
0.0
  0
VERTEX
  5
32F
  8
DEFAULT
 62
     7
 10
81.76109545149468
 20
66.31202481582733
 30
0.0
  0
VERTEX
  5
330
  8
DEFAULT
 62
     7
 10
81.54834074729098
 20
66.56542415850629
 30
0.0
  0
VERTEX
  5
331
  8
DEFAULT
 62
     7
 10
81.28815546464126
 20
66.76985269662133
 30
0.0
  0
VERTEX
  5
332
  8
DEFAULT
 62
     7
 10
80.99806184201671
 20
66.91420458921688
 30
0.0
  0
VERTEX
  5
333
  8
DEFAULT
 62
     7
 10
80.6977563245573
 20
66.99529707502639
 30
0.0
  0
VERTEX
  5
334
  8
DEFAULT
 62
     7
 10
80.40509491298191
 20
67.01735725012158
 30
0.0
  0
VERTEX
  5
335
  8
DEFAULT
 62
     7
 10
80.11331179368644
 20
66.98579798901199
 30
0.0
  0
VERTEX
  5
336
  8
DEFAULT
 62
     7
 10
79.81575408434666
 20
66.89498949968036
 30
0.0
  0
VERTEX
  5
337
  8
DEFAULT
 62
     7
 10
79.53053942844846
 20
66.74130065013546
 30
0.0
  0
VERTEX
  5
338
  8
DEFAULT
 62
     7
 10
79.27713617230931
 20
66.5285291739595
 30
0.0
  0
VERTEX
  5
339
  8
DEFAULT
 62
     7
 10
79.0726986891424
 20
66.26834780476999
 30
0.0
  0
SEQEND
  5
33A
  8
DEFAULT
 62
     7
  0
POLYLINE
  5
33B
  8
DEFAULT
 62
     7
 66
     1
 10
0.0
 20
0.0
 30
0.0
 70
     1
  0
VERTEX
  5
33C
  8
DEFAULT
 62
     7
 10
97.07285674571263
 20
106.7637017503963
 30
0.0
  0
VERTEX
  5
33D
  8
DEFAULT
 62
     7
 10
97.0059080640982
 20
106.9068041310595
 30
0.0
  0
VERTEX
  5
33E
  8
DEFAULT
 62
     7
 10
96.91233499467467
 20
107.0341324718253
 30
0.0
  0
VERTEX
  5
33F
  8
DEFAULT
 62
     7
 10
96.79569543182122
 20
107.1407401590127
 30
0.0
  0
VERTEX
  5
340
  8
DEFAULT
 62
     7
 10
96.66051836710997
 20
107.2225666981409
 30
0.0
  0
VERTEX
  5
341
  8
DEFAULT
 62
     7
 10
96.5119824265048
 20
107.2764203828913
 30
0.0
  0
VERTEX
  5
342
  8
DEFAULT
 62
     7
 10
96.35578560804338
 20
107.3002807496742
 30
0.0
  0
VERTEX
  5
343
  8
DEFAULT
 62
     7
 10
96.19794290003887
 20
107.2932001820577
 30
0.0
  0
VERTEX
  5
344
  8
DEFAULT
 62
     7
 10
96.04449333063134
 20
107.2554693942273
 30
0.0
  0
VERTEX
  5
345
  8
DEFAULT
 62
     7
 10
95.90138312304772
 20
107.188529098599
 30
0.0
  0
VERTEX
  5
346
  8
DEFAULT
 62
     7
 10
95.7740709951884
 20
107.0949476431894
 30
0.0
  0
VERTEX
  5
347
  8
DEFAULT
 62
     7
 10
95.66744653602878
 20
106.9783248523082
 30
0.0
  0
VERTEX
  5
348
  8
DEFAULT
 62
     7
 10
95.58563732793863
 20
106.8431567326488
 30
0.0
  0
VERTEX
  5
349
  8
DEFAULT
 62
     7
 10
95.53176631215018
 20
106.6946034610057
 30
0.0
  0
VERTEX
  5
34A
  8
DEFAULT
 62
     7
 10
95.5078975593811
 20
106.5384155875961
 30
0.0
  0
VERTEX
  5
34B
  8
DEFAULT
 62
     7
 10
95.51497756793191
 20
106.3805471625675
 30
0.0
  0
VERTEX
  5
34C
  8
DEFAULT
 62
     7
 10
95.55270891482803
 20
106.2271233101841
 30
0.0
  0
VERTEX
  5
34D
  8
DEFAULT
 62
     7
 10
95.61964026540447
 20
106.0839957715625
 30
0.0
  0
VERTEX
  5
34E
  8
DEFAULT
 62
     7
 10
95.71322172081409
 20
105.9566836437031
 30
0.0
  0
VERTEX
  5
34F
  8
DEFAULT
 62
     7
 10
95.82987861470554
 20
105.8500675705296
 30
0.0
  0
VERTEX
  5
350
  8
DEFAULT
 62
     7
 10
95.96502996239268
 20
105.7682415904673
 30
0.0
  0
VERTEX
  5
351
  8
DEFAULT
 62
     7
 10
96.11359162002196
 20
105.714387346651
 30
0.0
  0
VERTEX
  5
352
  8
DEFAULT
 62
     7
 10
96.26977110744541
 20
105.6905269798681
 30
0.0
  0
VERTEX
  5
353
  8
DEFAULT
 62
     7
 10
96.4276311464879
 20
105.6975991614985
 30
0.0
  0
VERTEX
  5
354
  8
DEFAULT
 62
     7
 10
96.5810723299093
 20
105.7353299493289
 30
0.0
  0
VERTEX
  5
355
  8
DEFAULT
 62
     7
 10
96.72419986853089
 20
105.8022702449572
 30
0.0
  0
VERTEX
  5
356
  8
DEFAULT
 62
     7
 10
96.8515198233106
 20
105.8958600863529
 30
0.0
  0
VERTEX
  5
357
  8
DEFAULT
 62
     7
 10
96.95811912451184
 20
106.0124828772341
 30
0.0
  0
VERTEX
  5
358
  8
DEFAULT
 62
     7
 10
97.03992833260199
 20
106.1476599419454
 30
0.0
  0
VERTEX
  5
359
  8
DEFAULT
 62
     7
 10
97.09380773437658
 20
106.2962042685367
 30
0.0
  0
VERTEX
  5
35A
  8
DEFAULT
 62
     7
 10
97.11765971517339
 20
106.4523921419463
 30
0.0
  0
VERTEX
  5
35B
  8
DEFAULT
 62
     7
 10
97.11059647859486
 20
106.6102437950026
 30
0.0
  0
SEQEND
  5
35C
  8
DEFAULT
 62
     7
  0
POLYLINE
  5
35D
  8
DEFAULT
 62
     7
 66
     1
 10
0.0
 20
0.0
 30
0.0
 70
     1
  0
VERTEX
  5
35E
  8
DEFAULT
 62
     7
 10
7.548412837278241
 20
11.48414005743542
 30
0.0
  0
VERTEX
  5
35F
  8
DEFAULT
 62
     7
 10
7.718064690941167
 20
11.24464859320859
 30
0.0
  0
VERTEX
  5
360
  8
DEFAULT
 62
     7
 10
7.928462373978569
 20
11.04001152357195
 30
0.0
  0
VERTEX
  5
361
  8
DEFAULT
 62
     7
 10
8.188151765315535
 20
10.86875682842805
 30
0.0
  0
VERTEX
  5
362
  8
DEFAULT
 62
     7
 10
8.48844945585456
 20
10.74709238268969
 30
0.0
  0
VERTEX
  5
363
  8
DEFAULT
 62
     7
 10
8.813949830021938
 20
10.68760611059325
 30
0.0
  0
VERTEX
  5
364
  8
DEFAULT
 62
     7
 10
9.144723312263464
 20
10.69609161041826
 30
0.0
  0
VERTEX
  5
365
  8
DEFAULT
 62
     7
 10
9.460205228342552
 20
10.76992183224523
 30
0.0
  0
VERTEX
  5
366
  8
DEFAULT
 62
     7
 10
9.743243441308943
 20
10.89898048148111
 30
0.0
  0
VERTEX
  5
367
  8
DEFAULT
 62
     7
 10
9.982742732456154
 20
11.06863289420978
 30
0.0
  0
VERTEX
  5
368
  8
DEFAULT
 62
     7
 10
10.18737197517241
 20
11.27903784510183
 30
0.0
  0
VERTEX
  5
369
  8
DEFAULT
 62
     7
 10
10.35861884339593
 20
11.53871996858415
 30
0.0
  0
VERTEX
  5
36A
  8
DEFAULT
 62
     7
 10
10.48030676989543
 20
11.83901765912318
 30
0.0
  0
VERTEX
  5
36B
  8
DEFAULT
 62
     7
 10
10.53977738815111
 20
12.16451803329056
 30
0.0
  0
VERTEX
  5
36C
  8
DEFAULT
 62
     7
 10
10.53129244739185
 20
12.4952836886117
 30
0.0
  0
VERTEX
  5
36D
  8
DEFAULT
 62
     7
 10
10.45749185604918
 20
12.81075106898151
 30
0.0
  0
VERTEX
  5
36E
  8
DEFAULT
 62
     7
 10
10.32840301726324
 20
13.09378760475067
 30
0.0
  0
VERTEX
  5
36F
  8
DEFAULT
 62
     7
 10
10.15874333667994
 20
13.33327962804324
 30
0.0
  0
VERTEX
  5
370
  8
DEFAULT
 62
     7
 10
9.948352921497177
 20
13.53790942982524
 30
0.0
  0
VERTEX
  5
371
  8
DEFAULT
 62
     7
 10
9.688648435385188
 20
13.70917195188952
 30
0.0
  0
VERTEX
  5
372
  8
DEFAULT
 62
     7
 10
9.388358571766542
 20
13.83084366548252
 30
0.0
  0
VERTEX
  5
373
  8
DEFAULT
 62
     7
 10
9.062865465453806
 20
13.89032937851322
 30
0.0
  0
VERTEX
  5
374
  8
DEFAULT
 62
     7
 10
8.7320841562919
 20
13.8818517056086
 30
0.0
  0
VERTEX
  5
375
  8
DEFAULT
 62
     7
 10
8.416610067133192
 20
13.80804440547703
 30
0.0
  0
VERTEX
  5
376
  8
DEFAULT
 62
     7
 10
8.133580240152924
 20
13.67897010240038
 30
0.0
  0
VERTEX
  5
377
  8
DEFAULT
 62
     7
 10
7.894080389939973
 20
13.5093188078032
 30
0.0
  0
VERTEX
  5
378
  8
DEFAULT
 62
     7
 10
7.6894589741441
 20
13.29890658905651
 30
0.0
  0
VERTEX
  5
379
  8
DEFAULT
 62
     7
 10
7.518212105920576
 20
13.0392233474427
 30
0.0
  0
VERTEX
  5
37A
  8
DEFAULT
 62
     7
 10
7.396532006341456
 20
12.73891838904903
 30
0.0
  0
VERTEX
  5
37B
  8
DEFAULT
 62
     7
 10
7.337046293310761
 20
12.41343310965668
 30
0.0
  0
VERTEX
  5
37C
  8
DEFAULT
 62
     7
 10
7.345516139295
 20
12.082653477692
 30
0.0
  0
VERTEX
  5
37D
  8
DEFAULT
 62
     7
 10
7.419346361121972
 20
11.76716373469253
 30
0.0
  0
SEQEND
  5
37E
  8
DEFAULT
 62
     7
  0
POLYLINE
  5
37F
  8
DEFAULT
 62
     7
 66
     1
 10
0.0
 20
0.0
 30
0.0
 70
     1
  0
VERTEX
  5
380
  8
DEFAULT
 62
     7
 10
56.95782068834256
 20
71.20109889173526
 30
0.0
  0
VERTEX
  5
381
  8
DEFAULT
 62
     7
 10
56.75339215022752
 20
70.94091360908554
 30
0.0
  0
VERTEX
  5
382
  8
DEFAULT
 62
     7
 10
56.60902348565973
 20
70.65083284497305
 30
0.0
  0
VERTEX
  5
383
  8
DEFAULT
 62
     7
 10
56.52793938583636
 20
70.35051894152753
 30
0.0
  0
VERTEX
  5
384
  8
DEFAULT
 62
     7
 10
56.50588759672728
 20
70.05786200247805
 30
0.0
  0
VERTEX
  5
385
  8
DEFAULT
 62
     7
 10
56.53744685783688
 20
69.76606155214458
 30
0.0
  0
VERTEX
  5
386
  8
DEFAULT
 62
     7
 10
56.62825143370831
 20
69.46853347328911
 30
0.0
  0
VERTEX
  5
387
  8
DEFAULT
 62
     7
 10
56.78193972418747
 20
69.18330651794463
 30
0.0
  0
VERTEX
  5
388
  8
DEFAULT
 62
     7
 10
56.9947162319551
 20
68.92989878927955
 30
0.0
  0
VERTEX
  5
389
  8
DEFAULT
 62
     7
 10
57.25488027010664
 20
68.72547416462469
 30
0.0
  0
VERTEX
  5
38A
  8
DEFAULT
 62
     7
 10
57.54497389273118
 20
68.58112227202913
 30
0.0
  0
VERTEX
  5
38B
  8
DEFAULT
 62
     7
 10
57.84529618216283
 20
68.50002978621964
 30
0.0
  0
VERTEX
  5
38C
  8
DEFAULT
 62
     7
 10
58.13796206626419
 20
68.47797799711057
 30
0.0
  0
VERTEX
  5
38D
  8
DEFAULT
 62
     7
 10
58.42974462649391
 20
68.50952887223404
 30
0.0
  0
VERTEX
  5
38E
  8
DEFAULT
 62
     7
 10
58.72728165040125
 20
68.6003379206314
 30
0.0
  0
VERTEX
  5
38F
  8
DEFAULT
 62
     7
 10
59.01250860574574
 20
68.75402621111056
 30
0.0
  0
VERTEX
  5
390
  8
DEFAULT
 62
     7
 10
59.26589956243858
 20
68.96680663233838
 30
0.0
  0
VERTEX
  5
391
  8
DEFAULT
 62
     7
 10
59.47033257307955
 20
69.22698352900196
 30
0.0
  0
VERTEX
  5
392
  8
DEFAULT
 62
     7
 10
59.61469676512142
 20
69.51706429311446
 30
0.0
  0
VERTEX
  5
393
  8
DEFAULT
 62
     7
 10
59.69578925093092
 20
69.81738211002018
 30
0.0
  0
VERTEX
  5
394
  8
DEFAULT
 62
     7
 10
59.71784551256592
 20
70.11005246664747
 30
0.0
  0
VERTEX
  5
395
  8
DEFAULT
 62
     7
 10
59.68628625145633
 20
70.40183502687718
 30
0.0
  0
VERTEX
  5
396
  8
DEFAULT
 62
     7
 10
59.59546881707284
 20
70.69935919227245
 30
0.0
  0
VERTEX
  5
397
  8
DEFAULT
 62
     7
 10
59.44178052659368
 20
70.98459509266883
 30
0.0
  0
VERTEX
  5
398
  8
DEFAULT
 62
     7
 10
59.22900849135198
 20
71.23799387628205
 30
0.0
  0
VERTEX
  5
399
  8
DEFAULT
 62
     7
 10
58.96882768122821
 20
71.44242744598877
 30
0.0
  0
VERTEX
  5
39A
  8
DEFAULT
 62
     7
 10
58.67874635804997
 20
71.58677877951857
 30
0.0
  0
VERTEX
  5
39B
  8
DEFAULT
 62
     7
 10
58.37843692713037
 20
71.66787573785402
 30
0.0
  0
VERTEX
  5
39C
  8
DEFAULT
 62
     7
 10
58.08576712956883
 20
71.6899359129492
 30
0.0
  0
VERTEX
  5
39D
  8
DEFAULT
 62
     7
 10
57.7939923962595
 20
71.6583727383794
 30
0.0
  0
VERTEX
  5
39E
  8
DEFAULT
 62
     7
 10
57.49644698636603
 20
71.56755921745612
 30
0.0
  0
VERTEX
  5
39F
  8
DEFAULT
 62
     7
 10
57.21122003102155
 20
71.41387092697695
 30
0.0
  0
SEQEND
  5
3A0
  8
DEFAULT
 62
     7
  0
POLYLINE
  5
3A1
  8
DEFAULT
 62
     7
 66
     1
 10
0.0
 20
0.0
 30
0.0
 70
     1
  0
VERTEX
  5
3A2
  8
DEFAULT
 62
     7
 10
78.71324177996574
 20
67.2054929353311
 30
0.0
  0
VERTEX
  5
3A3
  8
DEFAULT
 62
     7
 10
78.82936141167956
 20
67.61190242174473
 30
0.0
  0
VERTEX
  5
3A4
  8
DEFAULT
 62
     7
 10
78.86393627339899
 20
68.03315510359612
 30
0.0
  0
VERTEX
  5
3A5
  8
DEFAULT
 62
     7
 10
78.81567827765554
 20
68.45305987794467
 30
0.0
  0
VERTEX
  5
3A6
  8
DEFAULT
 62
     7
 10
78.68643010513327
 20
68.85547707589802
 30
0.0
  0
VERTEX
  5
3A7
  8
DEFAULT
 62
     7
 10
78.48114843269664
 20
69.22495300222872
 30
0.0
  0
VERTEX
  5
3A8
  8
DEFAULT
 62
     7
 10
78.20774012712818
 20
69.54728850523328
 30
0.0
  0
VERTEX
  5
3A9
  8
DEFAULT
 62
     7
 10
77.87671618343444
 20
69.81007176638389
 30
0.0
  0
VERTEX
  5
3AA
  8
DEFAULT
 62
     7
 10
77.50076124422509
 20
70.00323568887276
 30
0.0
  0
VERTEX
  5
3AB
  8
DEFAULT
 62
     7
 10
77.09436908884943
 20
70.11934637553472
 30
0.0
  0
VERTEX
  5
3AC
  8
DEFAULT
 62
     7
 10
76.67311640699806
 20
70.15393856829215
 30
0.0
  0
VERTEX
  5
3AD
  8
DEFAULT
 62
     7
 10
76.25319430161153
 20
70.1056716274968
 30
0.0
  0
VERTEX
  5
3AE
  8
DEFAULT
 62
     7
 10
75.85077710365817
 20
69.97642792750047
 30
0.0
  0
VERTEX
  5
3AF
  8
DEFAULT
 62
     7
 10
75.48130509078766
 20
69.77115016852403
 30
0.0
  0
VERTEX
  5
3B0
  8
DEFAULT
 62
     7
 10
75.15898244629517
 20
69.49774689454723
 30
0.0
  0
VERTEX
  5
3B1
  8
DEFAULT
 62
     7
 10
74.89618688569823
 20
69.16670170635533
 30
0.0
  0
VERTEX
  5
3B2
  8
DEFAULT
 62
     7
 10
74.70301010469731
 20
68.79075906659232
 30
0.0
  0
VERTEX
  5
3B3
  8
DEFAULT
 62
     7
 10
74.5869078040215
 20
68.38434566671847
 30
0.0
  0
VERTEX
  5
3B4
  8
DEFAULT
 62
     7
 10
74.55231561126405
 20
67.96310137085322
 30
0.0
  0
VERTEX
  5
3B5
  8
DEFAULT
 62
     7
 10
74.6005825520594
 20
67.54318765145281
 30
0.0
  0
VERTEX
  5
3B6
  8
DEFAULT
 62
     7
 10
74.72983016551592
 20
67.14077045349946
 30
0.0
  0
VERTEX
  5
3B7
  8
DEFAULT
 62
     7
 10
74.93509506598029
 20
66.77129452716876
 30
0.0
  0
VERTEX
  5
3B8
  8
DEFAULT
 62
     7
 10
75.20850337154876
 20
66.44896741015033
 30
0.0
  0
VERTEX
  5
3B9
  8
DEFAULT
 62
     7
 10
75.53955247320087
 20
66.18617632207932
 30
0.0
  0
VERTEX
  5
3BA
  8
DEFAULT
 62
     7
 10
75.91550797147595
 20
65.99300792706453
 30
0.0
  0
VERTEX
  5
3BB
  8
DEFAULT
 62
     7
 10
76.3219001268516
 20
65.87690115386275
 30
0.0
  0
VERTEX
  5
3BC
  8
DEFAULT
 62
     7
 10
76.74317013974097
 20
65.84230952017107
 30
0.0
  0
VERTEX
  5
3BD
  8
DEFAULT
 62
     7
 10
77.1630665281034
 20
65.89057142937475
 30
0.0
  0
VERTEX
  5
3BE
  8
DEFAULT
 62
     7
 10
77.56548372605674
 20
66.01981960189701
 30
0.0
  0
VERTEX
  5
3BF
  8
DEFAULT
 62
     7
 10
77.93496356584762
 20
66.22509736087343
 30
0.0
  0
VERTEX
  5
3C0
  8
DEFAULT
 62
     7
 10
78.257277824354
 20
66.49850510737616
 30
0.0
  0
VERTEX
  5
3C1
  8
DEFAULT
 62
     7
 10
78.52008233000281
 20
66.82954638210788
 30
0.0
  0
SEQEND
  5
3C2
  8
DEFAULT
 62
     7
  0
POLYLINE
  5
3C3
  8
DEFAULT
 62
     7
 66
     1
 10
0.0
 20
0.0
 30
0.0
 70
     1
  0
VERTEX
  5
3C4
  8
DEFAULT
 62
     7
 10
99.21706506497887
 20
106.7614839365996
 30
0.0
  0
VERTEX
  5
3C5
  8
DEFAULT
 62
     7
 10
99.15323037954478
 20
106.3436605640068
 30
0.0
  0
VERTEX
  5
3C6
  8
DEFAULT
 62
     7
 10
99.17216817247352
 20
105.9213926187688
 30
0.0
  0
VERTEX
  5
3C7
  8
DEFAULT
 62
     7
 10
99.27310301958154
 20
105.5109651268708
 30
0.0
  0
VERTEX
  5
3C8
  8
DEFAULT
 62
     7
 10
99.45218743043563
 20
105.128100135096
 30
0.0
  0
VERTEX
  5
3C9
  8
DEFAULT
 62
     7
 10
99.70249402143243
 20
104.7875307029314
 30
0.0
  0
VERTEX
  5
3CA
  8
DEFAULT
 62
     7
 10
100.0144605321288
 20
104.5023501500434
 30
0.0
  0
VERTEX
  5
3CB
  8
DEFAULT
 62
     7
 10
100.3760586630955
 20
104.2834960385996
 30
0.0
  0
VERTEX
  5
3CC
  8
DEFAULT
 62
     7
 10
100.7734084891676
 20
104.1393962846534
 30
0.0
  0
VERTEX
  5
3CD
  8
DEFAULT
 62
     7
 10
101.1912491927984
 20
104.0755867571777
 30
0.0
  0
VERTEX
  5
3CE
  8
DEFAULT
 62
     7
 10
101.6134998069984
 20
104.0945161641203
 30
0.0
  0
VERTEX
  5
3CF
  8
DEFAULT
 62
     7
 10
102.0239272988965
 20
104.1954510112283
 30
0.0
  0
VERTEX
  5
3D0
  8
DEFAULT
 62
     7
 10
102.4068006766573
 20
104.3745270360963
 30
0.0
  0
VERTEX
  5
3D1
  8
DEFAULT
 62
     7
 10
102.7473533368497
 20
104.6248593441172
 30
0.0
  0
VERTEX
  5
3D2
  8
DEFAULT
 62
     7
 10
103.032559047696
 20
104.9368085237756
 30
0.0
  0
VERTEX
  5
3D3
  8
DEFAULT
 62
     7
 10
103.2513880011815
 20
105.2984150407284
 30
0.0
  0
VERTEX
  5
3D4
  8
DEFAULT
 62
     7
 10
103.3954961411137
 20
105.6957648668005
 30
0.0
  0
VERTEX
  5
3D5
  8
DEFAULT
 62
     7
 10
103.4592972826033
 20
106.1135971844452
 30
0.0
  0
VERTEX
  5
3D6
  8
DEFAULT
 62
     7
 10
103.4403762616469
 20
106.5358394126591
 30
0.0
  0
VERTEX
  5
3D7
  8
DEFAULT
 62
     7
 10
103.3394156975148
 20
106.9462752905433
 30
0.0
  0
VERTEX
  5
3D8
  8
DEFAULT
 62
     7
 10
103.1603486176986
 20
107.3291313372661
 30
0.0
  0
VERTEX
  5
3D9
  8
DEFAULT
 62
     7
 10
102.9100246956639
 20
107.6697097144827
 30
0.0
  0
VERTEX
  5
3DA
  8
DEFAULT
 62
     7
 10
102.5980755160055
 20
107.9548645503465
 30
0.0
  0
VERTEX
  5
3DB
  8
DEFAULT
 62
     7
 10
102.2364689990526
 20
108.1737443788144
 30
0.0
  0
VERTEX
  5
3DC
  8
DEFAULT
 62
     7
 10
101.8391191729806
 20
108.3178273607883
 30
0.0
  0
VERTEX
  5
3DD
  8
DEFAULT
 62
     7
 10
101.421295241322
 20
108.3816620462224
 30
0.0
  0
VERTEX
  5
3DE
  8
DEFAULT
 62
     7
 10
100.9990703441461
 20
108.3627158673076
 30
0.0
  0
VERTEX
  5
3DF
  8
DEFAULT
 62
     7
 10
100.5886087492378
 20
108.2617810201995
 30
0.0
  0
VERTEX
  5
3E0
  8
DEFAULT
 62
     7
 10
100.2057610885011
 20
108.0827049953316
 30
0.0
  0
VERTEX
  5
3E1
  8
DEFAULT
 62
     7
 10
99.86518271128455
 20
107.8323810732968
 30
0.0
  0
VERTEX
  5
3E2
  8
DEFAULT
 62
     7
 10
99.5800021583966
 20
107.5204229485866
 30
0.0
  0
VERTEX
  5
3E3
  8
DEFAULT
 62
     7
 10
99.36114804695275
 20
107.1588253766856
 30
0.0
  0
SEQEND
  5
3E4
  8
DEFAULT
 62
     7
  0
POLYLINE
  5
3E5
  8
DEFAULT
 62
     7
 66
     1
 10
0.0
 20
0.0
 30
0.0
 70
     1
  0
VERTEX
  5
3E6
  8
DEFAULT
 62
     7
 10
81.41173918307032
 20
67.32978443098892
 30
0.0
  0
VERTEX
  5
3E7
  8
DEFAULT
 62
     7
 10
81.56368766096183
 20
67.28638471653939
 30
0.0
  0
VERTEX
  5
3E8
  8
DEFAULT
 62
     7
 10
81.721172007826
 20
67.27345240780622
 30
0.0
  0
VERTEX
  5
3E9
  8
DEFAULT
 62
     7
 10
81.87813642355054
 20
67.29149066395681
 30
0.0
  0
VERTEX
  5
3EA
  8
DEFAULT
 62
     7
 10
82.02856591982233
 20
67.3398123931948
 30
0.0
  0
VERTEX
  5
3EB
  8
DEFAULT
 62
     7
 10
82.166685906597
 20
67.41655870192963
 30
0.0
  0
VERTEX
  5
3EC
  8
DEFAULT
 62
     7
 10
82.28719867690779
 20
67.51876039200796
 30
0.0
  0
VERTEX
  5
3ED
  8
DEFAULT
 62
     7
 10
82.38543770901013
 20
67.64251853894837
 30
0.0
  0
VERTEX
  5
3EE
  8
DEFAULT
 62
     7
 10
82.45764999458112
 20
67.78305704412092
 30
0.0
  0
VERTEX
  5
3EF
  8
DEFAULT
 62
     7
 10
82.50105418155658
 20
67.93499266350037
 30
0.0
  0
VERTEX
  5
3F0
  8
DEFAULT
 62
     7
 10
82.51397810430363
 20
68.09246471091824
 30
0.0
  0
VERTEX
  5
3F1
  8
DEFAULT
 62
     7
 10
82.49593593469284
 20
68.24943751262892
 30
0.0
  0
VERTEX
  5
3F2
  8
DEFAULT
 62
     7
 10
82.44760917386316
 20
68.3998753948868
 30
0.0
  0
VERTEX
  5
3F3
  8
DEFAULT
 62
     7
 10
82.37087628270613
 20
68.5379998541874
 30
0.0
  0
VERTEX
  5
3F4
  8
DEFAULT
 62
     7
 10
82.26867012010187
 20
68.6584952934602
 30
0.0
  0
VERTEX
  5
3F5
  8
DEFAULT
 62
     7
 10
82.14491588662166
 20
68.75674327061442
 30
0.0
  0
VERTEX
  5
3F6
  8
DEFAULT
 62
     7
 10
82.00438185397506
 20
68.82895555618539
 30
0.0
  0
VERTEX
  5
3F7
  8
DEFAULT
 62
     7
 10
81.85243337608352
 20
68.87235918409512
 30
0.0
  0
VERTEX
  5
3F8
  8
DEFAULT
 62
     7
 10
81.6949658011916
 20
68.88528310684215
 30
0.0
  0
VERTEX
  5
3F9
  8
DEFAULT
 62
     7
 10
81.53799299948092
 20
68.86724540975732
 30
0.0
  0
VERTEX
  5
3FA
  8
DEFAULT
 62
     7
 10
81.38753778618504
 20
68.8189275939795
 30
0.0
  0
VERTEX
  5
3FB
  8
DEFAULT
 62
     7
 10
81.24943457138262
 20
68.74219414375675
 30
0.0
  0
VERTEX
  5
3FC
  8
DEFAULT
 62
     7
 10
81.1289391321098
 20
68.63997568170615
 30
0.0
  0
VERTEX
  5
3FD
  8
DEFAULT
 62
     7
 10
81.0306911549556
 20
68.51622536168612
 30
0.0
  0
VERTEX
  5
3FE
  8
DEFAULT
 62
     7
 10
80.95848781443648
 20
68.3756868565136
 30
0.0
  0
VERTEX
  5
3FF
  8
DEFAULT
 62
     7
 10
80.91508362746104
 20
68.22375123713414
 30
0.0
  0
VERTEX
  5
400
  8
DEFAULT
 62
     7
 10
80.90213398768988
 20
68.06627136279589
 30
0.0
  0
VERTEX
  5
401
  8
DEFAULT
 62
     7
 10
80.92019348833864
 20
67.90929856108521
 30
0.0
  0
VERTEX
  5
402
  8
DEFAULT
 62
     7
 10
80.96850291813034
 20
67.75885564723565
 30
0.0
  0
VERTEX
  5
403
  8
DEFAULT
 62
     7
 10
81.04524475433921
 20
67.62073566046097
 30
0.0
  0
VERTEX
  5
404
  8
DEFAULT
 62
     7
 10
81.14744197189161
 20
67.50023127613629
 30
0.0
  0
VERTEX
  5
405
  8
DEFAULT
 62
     7
 10
81.2712051504237
 20
67.40199224403396
 30
0.0
  0
SEQEND
  5
406
  8
DEFAULT
 62
     7
  0
POLYLINE
  5
407
  8
DEFAULT
 62
     7
 66
     1
 10
0.0
 20
0.0
 30
0.0
 70
     1
  0
VERTEX
  5
408
  8
DEFAULT
 62
     7
 10
11.88861349918615
 20
88.47637622129277
 30
0.0
  0
VERTEX
  5
409
  8
DEFAULT
 62
     7
 10
12.15141688670346
 20
88.80741749602446
 30
0.0
  0
VERTEX
  5
40A
  8
DEFAULT
 62
     7
 10
12.34457018694324
 20
89.18337243523378
 30
0.0
  0
VERTEX
  5
40B
  8
DEFAULT
 62
     7
 10
12.46067248761908
 20
89.58977297659557
 30
0.0
  0
VERTEX
  5
40C
  8
DEFAULT
 62
     7
 10
12.49526803477094
 20
90.01102621751268
 30
0.0
  0
VERTEX
  5
40D
  8
DEFAULT
 62
     7
 10
12.44701395248766
 20
90.43093099186122
 30
0.0
  0
VERTEX
  5
40E
  8
DEFAULT
 62
     7
 10
12.31777248875429
 20
90.8333565758007
 30
0.0
  0
VERTEX
  5
40F
  8
DEFAULT
 62
     7
 10
12.11248690285748
 20
91.20281964361935
 30
0.0
  0
VERTEX
  5
410
  8
DEFAULT
 62
     7
 10
11.83910151898441
 20
91.52514228811185
 30
0.0
  0
VERTEX
  5
411
  8
DEFAULT
 62
     7
 10
11.50804570854341
 20
91.7879384077745
 30
0.0
  0
VERTEX
  5
412
  8
DEFAULT
 62
     7
 10
11.13209356466279
 20
91.98110680278933
 30
0.0
  0
VERTEX
  5
413
  8
DEFAULT
 62
     7
 10
10.72569693676119
 20
92.09720910346516
 30
0.0
  0
VERTEX
  5
414
  8
DEFAULT
 62
     7
 10
10.30445152276445
 20
92.13180073715684
 30
0.0
  0
VERTEX
  5
415
  8
DEFAULT
 62
     7
 10
9.884548425613133
 20
92.08353435542725
 30
0.0
  0
VERTEX
  5
416
  8
DEFAULT
 62
     7
 10
9.482112219424561
 20
91.95428618290498
 30
0.0
  0
VERTEX
  5
417
  8
DEFAULT
 62
     7
 10
9.112645797211472
 20
91.7490212824406
 30
0.0
  0
VERTEX
  5
418
  8
DEFAULT
 62
     7
 10
8.7903114123384
 20
91.47561353593788
 30
0.0
  0
VERTEX
  5
419
  8
DEFAULT
 62
     7
 10
8.527516969872954
 20
91.14456387522003
 30
0.0
  0
VERTEX
  5
41A
  8
DEFAULT
 62
     7
 10
8.334355842712784
 20
90.76862626704867
 30
0.0
  0
VERTEX
  5
41B
  8
DEFAULT
 62
     7
 10
8.21826080989159
 20
90.36221678063502
 30
0.0
  0
VERTEX
  5
41C
  8
DEFAULT
 62
     7
 10
8.183673089660108
 20
89.94095515373178
 30
0.0
  0
VERTEX
  5
41D
  8
DEFAULT
 62
     7
 10
8.231942266718407
 20
89.52105876536936
 30
0.0
  0
VERTEX
  5
41E
  8
DEFAULT
 62
     7
 10
8.361183730451774
 20
89.118641567416
 30
0.0
  0
VERTEX
  5
41F
  8
DEFAULT
 62
     7
 10
8.56645422157357
 20
88.74917011361124
 30
0.0
  0
VERTEX
  5
420
  8
DEFAULT
 62
     7
 10
8.83986308620778
 20
88.42683013808076
 30
0.0
  0
VERTEX
  5
421
  8
DEFAULT
 62
     7
 10
9.170902124676534
 20
88.16403457748383
 30
0.0
  0
VERTEX
  5
422
  8
DEFAULT
 62
     7
 10
9.546839732847877
 20
87.97088295444125
 30
0.0
  0
VERTEX
  5
423
  8
DEFAULT
 62
     7
 10
9.953244187669855
 20
87.85478065376543
 30
0.0
  0
VERTEX
  5
424
  8
DEFAULT
 62
     7
 10
10.3744896016666
 20
87.82019740605988
 30
0.0
  0
VERTEX
  5
425
  8
DEFAULT
 62
     7
 10
10.79439269881791
 20
87.86844701581724
 30
0.0
  0
VERTEX
  5
426
  8
DEFAULT
 62
     7
 10
11.19682219621758
 20
87.9976951883395
 30
0.0
  0
VERTEX
  5
427
  8
DEFAULT
 62
     7
 10
11.56628750029919
 20
88.20296847478998
 30
0.0
  0
SEQEND
  5
428
  8
DEFAULT
 62
     7
  0
POLYLINE
  5
429
  8
DEFAULT
 62
     7
 66
     1
 10
0.0
 20
0.0
 30
0.0
 70
     1
  0
VERTEX
  5
42A
  8
DEFAULT
 62
     7
 10
58.60087017745153
 20
72.5818766648471
 30
0.0
  0
VERTEX
  5
42B
  8
DEFAULT
 62
     7
 10
58.64918743416358
 20
72.43142983753734
 30
0.0
  0
VERTEX
  5
42C
  8
DEFAULT
 62
     7
 10
58.72591641186042
 20
72.29331432328861
 30
0.0
  0
VERTEX
  5
42D
  8
DEFAULT
 62
     7
 10
58.82810971595263
 20
72.17280993896392
 30
0.0
  0
VERTEX
  5
42E
  8
DEFAULT
 62
     7
 10
58.95187289448471
 20
72.07456643433567
 30
0.0
  0
VERTEX
  5
42F
  8
DEFAULT
 62
     7
 10
59.09241531311744
 20
72.0023586212906
 30
0.0
  0
VERTEX
  5
430
  8
DEFAULT
 62
     7
 10
59.24435931848301
 20
71.95895499338087
 30
0.0
  0
VERTEX
  5
431
  8
DEFAULT
 62
     7
 10
59.401839751887
 20
71.94603107063384
 30
0.0
  0
VERTEX
  5
432
  8
DEFAULT
 62
     7
 10
59.55881702612361
 20
71.96406038173257
 30
0.0
  0
VERTEX
  5
433
  8
DEFAULT
 62
     7
 10
59.70924204986945
 20
72.01238267003632
 30
0.0
  0
VERTEX
  5
434
  8
DEFAULT
 62
     7
 10
59.84736259570986
 20
72.08912841970539
 30
0.0
  0
VERTEX
  5
435
  8
DEFAULT
 62
     7
 10
59.96787480695492
 20
72.19133458230966
 30
0.0
  0
VERTEX
  5
436
  8
DEFAULT
 62
     7
 10
60.06610545307113
 20
72.3150932883158
 30
0.0
  0
VERTEX
  5
437
  8
DEFAULT
 62
     7
 10
60.13832612462824
 20
72.45561893497629
 30
0.0
  0
VERTEX
  5
438
  8
DEFAULT
 62
     7
 10
60.18172192561758
 20
72.60755846781593
 30
0.0
  0
VERTEX
  5
439
  8
DEFAULT
 62
     7
 10
60.19465423435074
 20
72.7650428146801
 30
0.0
  0
VERTEX
  5
43A
  8
DEFAULT
 62
     7
 10
60.17660759221403
 20
72.9220117029306
 30
0.0
  0
VERTEX
  5
43B
  8
DEFAULT
 62
     7
 10
60.12828586297602
 20
73.07245014425425
 30
0.0
  0
VERTEX
  5
43C
  8
DEFAULT
 62
     7
 10
60.05155241275327
 20
73.21057013102889
 30
0.0
  0
VERTEX
  5
43D
  8
DEFAULT
 62
     7
 10
59.94935072267494
 20
73.33107395628782
 30
0.0
  0
VERTEX
  5
43E
  8
DEFAULT
 62
     7
 10
59.82559648919472
 20
73.42932193344204
 30
0.0
  0
VERTEX
  5
43F
  8
DEFAULT
 62
     7
 10
59.68505351149624
 20
73.50152136050096
 30
0.0
  0
VERTEX
  5
440
  8
DEFAULT
 62
     7
 10
59.53311397865659
 20
73.54493393346256
 30
0.0
  0
VERTEX
  5
441
  8
DEFAULT
 62
     7
 10
59.37564193123873
 20
73.55786176966977
 30
0.0
  0
VERTEX
  5
442
  8
DEFAULT
 62
     7
 10
59.21866521606786
 20
73.53981960005902
 30
0.0
  0
VERTEX
  5
443
  8
DEFAULT
 62
     7
 10
59.06820553024605
 20
73.49151017026732
 30
0.0
  0
VERTEX
  5
444
  8
DEFAULT
 62
     7
 10
58.93010678796956
 20
73.4147599480723
 30
0.0
  0
VERTEX
  5
445
  8
DEFAULT
 62
     7
 10
58.80961078963101
 20
73.31254987200785
 30
0.0
  0
VERTEX
  5
446
  8
DEFAULT
 62
     7
 10
58.71136784406848
 20
73.18879563852765
 30
0.0
  0
VERTEX
  5
447
  8
DEFAULT
 62
     7
 10
58.63916003102342
 20
73.0482571333551
 30
0.0
  0
VERTEX
  5
448
  8
DEFAULT
 62
     7
 10
58.59574745806184
 20
72.89632151397564
 30
0.0
  0
VERTEX
  5
449
  8
DEFAULT
 62
     7
 10
58.58281067680274
 20
72.7388366080457
 30
0.0
  0
SEQEND
  5
44A
  8
DEFAULT
 62
     7
  0
POLYLINE
  5
44B
  8
DEFAULT
 62
     7
 66
     1
 10
0.0
 20
0.0
 30
0.0
 70
     1
  0
VERTEX
  5
44C
  8
DEFAULT
 62
     7
 10
72.49609249933464
 20
68.086949527378
 30
0.0
  0
VERTEX
  5
44D
  8
DEFAULT
 62
     7
 10
72.44777077009664
 20
68.23739188216182
 30
0.0
  0
VERTEX
  5
44E
  8
DEFAULT
 62
     7
 10
72.37101160284975
 20
68.37551186893648
 30
0.0
  0
VERTEX
  5
44F
  8
DEFAULT
 62
     7
 10
72.26880991277145
 20
68.49600786727504
 30
0.0
  0
VERTEX
  5
450
  8
DEFAULT
 62
     7
 10
72.14506853780327
 20
68.59424689937738
 30
0.0
  0
VERTEX
  5
451
  8
DEFAULT
 62
     7
 10
72.00451717411866
 20
68.66646309840856
 30
0.0
  0
VERTEX
  5
452
  8
DEFAULT
 62
     7
 10
71.85258602726515
 20
68.70986281285809
 30
0.0
  0
VERTEX
  5
453
  8
DEFAULT
 62
     7
 10
71.69511845237321
 20
68.722795680657
 30
0.0
  0
VERTEX
  5
454
  8
DEFAULT
 62
     7
 10
71.53813726467641
 20
68.70476133796659
 30
0.0
  0
VERTEX
  5
455
  8
DEFAULT
 62
     7
 10
71.3876814923148
 20
68.65643960872859
 30
0.0
  0
VERTEX
  5
456
  8
DEFAULT
 62
     7
 10
71.24956150554013
 20
68.57970615850584
 30
0.0
  0
VERTEX
  5
457
  8
DEFAULT
 62
     7
 10
71.12907445225343
 20
68.47748769645526
 30
0.0
  0
VERTEX
  5
458
  8
DEFAULT
 62
     7
 10
71.03084380613721
 20
68.35373346297503
 30
0.0
  0
VERTEX
  5
459
  8
DEFAULT
 62
     7
 10
70.95861922111993
 20
68.21319048527656
 30
0.0
  0
VERTEX
  5
45A
  8
DEFAULT
 62
     7
 10
70.91521503414447
 20
68.06126381094897
 30
0.0
  0
VERTEX
  5
45B
  8
DEFAULT
 62
     7
 10
70.90227378035944
 20
67.90378337754498
 30
0.0
  0
VERTEX
  5
45C
  8
DEFAULT
 62
     7
 10
70.92032936754802
 20
67.7468144892945
 30
0.0
  0
VERTEX
  5
45D
  8
DEFAULT
 62
     7
 10
70.9686427107999
 20
67.59636374852454
 30
0.0
  0
VERTEX
  5
45E
  8
DEFAULT
 62
     7
 10
71.04538454700878
 20
67.45824767521006
 30
0.0
  0
VERTEX
  5
45F
  8
DEFAULT
 62
     7
 10
71.14758623708711
 20
67.33775223593726
 30
0.0
  0
VERTEX
  5
460
  8
DEFAULT
 62
     7
 10
71.27132761205527
 20
67.23951320383492
 30
0.0
  0
VERTEX
  5
461
  8
DEFAULT
 62
     7
 10
71.41187897573987
 20
67.167296445738
 30
0.0
  0
VERTEX
  5
462
  8
DEFAULT
 62
     7
 10
71.56381850857953
 20
67.12389281782828
 30
0.0
  0
VERTEX
  5
463
  8
DEFAULT
 62
     7
 10
71.72130341450944
 20
67.11096442255531
 30
0.0
  0
VERTEX
  5
464
  8
DEFAULT
 62
     7
 10
71.8782717436942
 20
67.1290026787059
 30
0.0
  0
VERTEX
  5
465
  8
DEFAULT
 62
     7
 10
72.02870571249188
 20
67.17732049448371
 30
0.0
  0
VERTEX
  5
466
  8
DEFAULT
 62
     7
 10
72.16683464431841
 20
67.25406233069259
 30
0.0
  0
VERTEX
  5
467
  8
DEFAULT
 62
     7
 10
72.28733846957735
 20
67.35627240675706
 30
0.0
  0
VERTEX
  5
468
  8
DEFAULT
 62
     7
 10
72.38556911569357
 20
67.48002664023727
 30
0.0
  0
VERTEX
  5
469
  8
DEFAULT
 62
     7
 10
72.45777692873861
 20
67.62056067288387
 30
0.0
  0
VERTEX
  5
46A
  8
DEFAULT
 62
     7
 10
72.50118558824002
 20
67.77249629226334
 30
0.0
  0
VERTEX
  5
46B
  8
DEFAULT
 62
     7
 10
72.51410951098705
 20
67.9299683396812
 30
0.0
  0
SEQEND
  5
46C
  8
DEFAULT
 62
     7
  0
POLYLINE
  5
46D
  8
DEFAULT
 62
     7
 66
     1
 10
0.0
 20
0.0
 30
0.0
 70
     1
  0
VERTEX
  5
46E
  8
DEFAULT
 62
     7
 10
11.37696491852039
 20
17.12542143473652
 30
0.0
  0
VERTEX
  5
46F
  8
DEFAULT
 62
     7
 10
11.6772475142844
 20
17.00374077609165
 30
0.0
  0
VERTEX
  5
470
  8
DEFAULT
 62
     7
 10
12.00274788845178
 20
16.94426177184986
 30
0.0
  0
VERTEX
  5
471
  8
DEFAULT
 62
     7
 10
12.33352192975904
 20
16.95274671260912
 30
0.0
  0
VERTEX
  5
472
  8
DEFAULT
 62
     7
 10
12.64901167275851
 20
17.02655513087217
 30
0.0
  0
VERTEX
  5
473
  8
DEFAULT
 62
     7
 10
12.93204205880452
 20
17.15563670180346
 30
0.0
  0
VERTEX
  5
474
  8
DEFAULT
 62
     7
 10
13.17153296396561
 20
17.32528911453213
 30
0.0
  0
VERTEX
  5
475
  8
DEFAULT
 62
     7
 10
13.37615493882722
 20
17.53568679756953
 30
0.0
  0
VERTEX
  5
476
  8
DEFAULT
 62
     7
 10
13.54741690182577
 20
17.79538345676114
 30
0.0
  0
VERTEX
  5
477
  8
DEFAULT
 62
     7
 10
13.66908190662986
 20
18.09567332037978
 30
0.0
  0
VERTEX
  5
478
  8
DEFAULT
 62
     7
 10
13.72856761966056
 20
18.42116642669252
 30
0.0
  0
VERTEX
  5
479
  8
DEFAULT
 62
     7
 10
13.72009777367632
 20
18.75194717678868
 30
0.0
  0
VERTEX
  5
47A
  8
DEFAULT
 62
     7
 10
13.64627426063825
 20
19.06742853380203
 30
0.0
  0
VERTEX
  5
47B
  8
DEFAULT
 62
     7
 10
13.51719380783844
 20
19.35046003797952
 30
0.0
  0
VERTEX
  5
47C
  8
DEFAULT
 62
     7
 10
13.3475497810959
 20
19.58995206127209
 30
0.0
  0
VERTEX
  5
47D
  8
DEFAULT
 62
     7
 10
13.13714259394089
 20
19.79457291800223
 30
0.0
  0
VERTEX
  5
47E
  8
DEFAULT
 62
     7
 10
12.87744593474928
 20
19.96582705408039
 30
0.0
  0
VERTEX
  5
47F
  8
DEFAULT
 62
     7
 10
12.57715663019638
 20
20.08749988580487
 30
0.0
  0
VERTEX
  5
480
  8
DEFAULT
 62
     7
 10
12.25167135080402
 20
20.1469861579013
 30
0.0
  0
VERTEX
  5
481
  8
DEFAULT
 62
     7
 10
11.92088333285322
 20
20.13851519378558
 30
0.0
  0
VERTEX
  5
482
  8
DEFAULT
 62
     7
 10
11.60540812556303
 20
20.06470062579937
 30
0.0
  0
VERTEX
  5
483
  8
DEFAULT
 62
     7
 10
11.32237773951702
 20
19.9356112279477
 30
0.0
  0
VERTEX
  5
484
  8
DEFAULT
 62
     7
 10
11.08287844836981
 20
19.76595881521903
 30
0.0
  0
VERTEX
  5
485
  8
DEFAULT
 62
     7
 10
10.8782497647193
 20
19.55555442339273
 30
0.0
  0
VERTEX
  5
486
  8
DEFAULT
 62
     7
 10
10.70699562864114
 20
19.29587341804189
 30
0.0
  0
VERTEX
  5
487
  8
DEFAULT
 62
     7
 10
10.58533006477129
 20
18.99557460937138
 30
0.0
  0
VERTEX
  5
488
  8
DEFAULT
 62
     7
 10
10.52585217866098
 20
18.67008932997902
 30
0.0
  0
VERTEX
  5
489
  8
DEFAULT
 62
     7
 10
10.53432873343412
 20
18.33931696586898
 30
0.0
  0
VERTEX
  5
48A
  8
DEFAULT
 62
     7
 10
10.60812932477679
 20
18.02381883688339
 30
0.0
  0
VERTEX
  5
48B
  8
DEFAULT
 62
     7
 10
10.73720362785344
 20
17.74078845083738
 30
0.0
  0
VERTEX
  5
48C
  8
DEFAULT
 62
     7
 10
10.90687057629138
 20
17.50129642754481
 30
0.0
  0
VERTEX
  5
48D
  8
DEFAULT
 62
     7
 10
11.11726825932879
 20
17.29667557081468
 30
0.0
  0
SEQEND
  5
48E
  8
DEFAULT
 62
     7
  0
POLYLINE
  5
48F
  8
DEFAULT
 62
     7
 66
     1
 10
0.0
 20
0.0
 30
0.0
 70
     1
  0
VERTEX
  5
490
  8
DEFAULT
 62
     7
 10
72.75387212209853
 20
84.28371580390434
 30
0.0
  0
VERTEX
  5
491
  8
DEFAULT
 62
     7
 10
73.0439405867647
 20
84.1393599978486
 30
0.0
  0
VERTEX
  5
492
  8
DEFAULT
 62
     7
 10
73.34424554515839
 20
84.05827589802522
 30
0.0
  0
VERTEX
  5
493
  8
DEFAULT
 62
     7
 10
73.63691981524585
 20
84.03621572293005
 30
0.0
  0
VERTEX
  5
494
  8
DEFAULT
 62
     7
 10
73.92871579305337
 20
84.06777889749984
 30
0.0
  0
VERTEX
  5
495
  8
DEFAULT
 62
     7
 10
74.22624387190884
 20
84.15857955991105
 30
0.0
  0
VERTEX
  5
496
  8
DEFAULT
 62
     7
 10
74.51147921323944
 20
84.3122767954421
 30
0.0
  0
VERTEX
  5
497
  8
DEFAULT
 62
     7
 10
74.76487464245822
 20
84.52503988563193
 30
0.0
  0
VERTEX
  5
498
  8
DEFAULT
 62
     7
 10
74.96929479458713
 20
84.78522516828163
 30
0.0
  0
VERTEX
  5
499
  8
DEFAULT
 62
     7
 10
75.11365898662902
 20
85.07529363294782
 30
0.0
  0
VERTEX
  5
49A
  8
DEFAULT
 62
     7
 10
75.19475147243853
 20
85.37562430836557
 30
0.0
  0
VERTEX
  5
49B
  8
DEFAULT
 62
     7
 10
75.21682059258556
 20
85.668285719941
 30
0.0
  0
VERTEX
  5
49C
  8
DEFAULT
 62
     7
 10
75.18524847296392
 20
85.9600856112087
 30
0.0
  0
VERTEX
  5
49D
  8
DEFAULT
 62
     7
 10
75.09444836961842
 20
86.25760139061786
 30
0.0
  0
VERTEX
  5
49E
  8
DEFAULT
 62
     7
 10
74.94075113408739
 20
86.54283225942255
 30
0.0
  0
VERTEX
  5
49F
  8
DEFAULT
 62
     7
 10
74.7279790988457
 20
86.79624446061358
 30
0.0
  0
VERTEX
  5
4A0
  8
DEFAULT
 62
     7
 10
74.4678022021821
 20
87.00065622675638
 30
0.0
  0
VERTEX
  5
4A1
  8
DEFAULT
 62
     7
 10
74.1777130520835
 20
87.14502097786398
 30
0.0
  0
VERTEX
  5
4A2
  8
DEFAULT
 62
     7
 10
73.87740362116391
 20
87.22610451862163
 30
0.0
  0
VERTEX
  5
4A3
  8
DEFAULT
 62
     7
 10
73.58474612304867
 20
87.24817363876865
 30
0.0
  0
VERTEX
  5
4A4
  8
DEFAULT
 62
     7
 10
73.29294623178096
 20
87.216618850185
 30
0.0
  0
VERTEX
  5
4A5
  8
DEFAULT
 62
     7
 10
72.99541368039955
 20
87.12580980178765
 30
0.0
  0
VERTEX
  5
4A6
  8
DEFAULT
 62
     7
 10
72.71019511104119
 20
86.97212151130849
 30
0.0
  0
VERTEX
  5
4A7
  8
DEFAULT
 62
     7
 10
72.45677899638997
 20
86.75934109008065
 30
0.0
  0
VERTEX
  5
4A8
  8
DEFAULT
 62
     7
 10
72.25236275772124
 20
86.49915524836521
 30
0.0
  0
VERTEX
  5
4A9
  8
DEFAULT
 62
     7
 10
72.10801142419143
 20
86.20908734276476
 30
0.0
  0
VERTEX
  5
4AA
  8
DEFAULT
 62
     7
 10
72.02691893838194
 20
85.90876505333313
 30
0.0
  0
VERTEX
  5
4AB
  8
DEFAULT
 62
     7
 10
72.00486714927288
 20
85.6161036417577
 30
0.0
  0
VERTEX
  5
4AC
  8
DEFAULT
 62
     7
 10
72.03641746533062
 20
85.32431213647612
 30
0.0
  0
VERTEX
  5
4AD
  8
DEFAULT
 62
     7
 10
72.12721812774183
 20
85.02677958509472
 30
0.0
  0
VERTEX
  5
4AE
  8
DEFAULT
 62
     7
 10
72.280906418221
 20
84.74154815722429
 30
0.0
  0
VERTEX
  5
4AF
  8
DEFAULT
 62
     7
 10
72.49367845346268
 20
84.48814490108512
 30
0.0
  0
SEQEND
  5
4B0
  8
DEFAULT
 62
     7
  0
POLYLINE
  5
4B1
  8
DEFAULT
 62
     7
 66
     1
 10
0.0
 20
0.0
 30
0.0
 70
     1
  0
VERTEX
  5
4B2
  8
DEFAULT
 62
     7
 10
105.4948679469748
 20
106.0048393304159
 30
0.0
  0
VERTEX
  5
4B3
  8
DEFAULT
 62
     7
 10
105.5019569005774
 20
105.8469792913734
 30
0.0
  0
VERTEX
  5
4B4
  8
DEFAULT
 62
     7
 10
105.5396966334596
 20
105.6935386670177
 30
0.0
  0
VERTEX
  5
4B5
  8
DEFAULT
 62
     7
 10
105.6066363700222
 20
105.5504195143823
 30
0.0
  0
VERTEX
  5
4B6
  8
DEFAULT
 62
     7
 10
105.7002094394457
 20
105.4230990005368
 30
0.0
  0
VERTEX
  5
4B7
  8
DEFAULT
 62
     7
 10
105.816840616313
 20
105.3164913133494
 30
0.0
  0
VERTEX
  5
4B8
  8
DEFAULT
 62
     7
 10
105.9520092950382
 20
105.2346653332871
 30
0.0
  0
VERTEX
  5
4B9
  8
DEFAULT
 62
     7
 10
106.1005536216295
 20
105.1808027034847
 30
0.0
  0
VERTEX
  5
4BA
  8
DEFAULT
 62
     7
 10
106.2567672120631
 20
105.1569507226879
 30
0.0
  0
VERTEX
  5
4BB
  8
DEFAULT
 62
     7
 10
106.4146015340815
 20
105.1640229043183
 30
0.0
  0
VERTEX
  5
4BC
  8
DEFAULT
 62
     7
 10
106.5680343315168
 20
105.2017453061626
 30
0.0
  0
VERTEX
  5
4BD
  8
DEFAULT
 62
     7
 10
106.7111529250865
 20
105.268711318815
 30
0.0
  0
VERTEX
  5
4BE
  8
DEFAULT
 62
     7
 10
106.8384902109042
 20
105.3622754431866
 30
0.0
  0
VERTEX
  5
4BF
  8
DEFAULT
 62
     7
 10
106.9450978980916
 20
105.4788982340678
 30
0.0
  0
VERTEX
  5
4C0
  8
DEFAULT
 62
     7
 10
107.0268987201956
 20
105.6140836847652
 30
0.0
  0
VERTEX
  5
4C1
  8
DEFAULT
 62
     7
 10
107.0807697359841
 20
105.7626196253704
 30
0.0
  0
VERTEX
  5
4C2
  8
DEFAULT
 62
     7
 10
107.1046217167809
 20
105.9188248298179
 30
0.0
  0
VERTEX
  5
4C3
  8
DEFAULT
 62
     7
 10
107.0975579211366
 20
106.0766675378224
 30
0.0
  0
VERTEX
  5
4C4
  8
DEFAULT
 62
     7
 10
107.0598181882544
 20
106.23011710723
 30
0.0
  0
VERTEX
  5
4C5
  8
DEFAULT
 62
     7
 10
106.9928868376779
 20
106.3732362598654
 30
0.0
  0
VERTEX
  5
4C6
  8
DEFAULT
 62
     7
 10
106.8992969962822
 20
106.500565159697
 30
0.0
  0
VERTEX
  5
4C7
  8
DEFAULT
 62
     7
 10
106.7826658194148
 20
106.6071728468844
 30
0.0
  0
VERTEX
  5
4C8
  8
DEFAULT
 62
     7
 10
106.6474887547036
 20
106.6889820549745
 30
0.0
  0
VERTEX
  5
4C9
  8
DEFAULT
 62
     7
 10
106.4989444281123
 20
106.7428446847769
 30
0.0
  0
VERTEX
  5
4CA
  8
DEFAULT
 62
     7
 10
106.342773326675
 20
106.7667044924941
 30
0.0
  0
VERTEX
  5
4CB
  8
DEFAULT
 62
     7
 10
106.1849132876325
 20
106.7596244839433
 30
0.0
  0
VERTEX
  5
4CC
  8
DEFAULT
 62
     7
 10
106.0314721042111
 20
106.7218931370472
 30
0.0
  0
VERTEX
  5
4CD
  8
DEFAULT
 62
     7
 10
105.8883445655895
 20
106.6549444554327
 30
0.0
  0
VERTEX
  5
4CE
  8
DEFAULT
 62
     7
 10
105.7610162248237
 20
106.5613713860092
 30
0.0
  0
VERTEX
  5
4CF
  8
DEFAULT
 62
     7
 10
105.6544169236224
 20
106.4447575401799
 30
0.0
  0
VERTEX
  5
4D0
  8
DEFAULT
 62
     7
 10
105.5726161015184
 20
106.3095720894825
 30
0.0
  0
VERTEX
  5
4D1
  8
DEFAULT
 62
     7
 10
105.5187366997438
 20
106.1610272038255
 30
0.0
  0
SEQEND
  5
4D2
  8
DEFAULT
 62
     7
  0
POLYLINE
  5
4D3
  8
DEFAULT
 62
     7
 66
     1
 10
0.0
 20
0.0
 30
0.0
 70
     1
  0
VERTEX
  5
4D4
  8
DEFAULT
 62
     7
 10
50.19480688553237
 20
72.6025425299829
 30
0.0
  0
VERTEX
  5
4D5
  8
DEFAULT
 62
     7
 10
50.17676471592159
 20
72.75951924515377
 30
0.0
  0
VERTEX
  5
4D6
  8
DEFAULT
 62
     7
 10
50.12843404163171
 20
72.9099576864774
 30
0.0
  0
VERTEX
  5
4D7
  8
DEFAULT
 62
     7
 10
50.05170059140895
 20
73.04808214577798
 30
0.0
  0
VERTEX
  5
4D8
  8
DEFAULT
 62
     7
 10
49.94949498787042
 20
73.1685775850508
 30
0.0
  0
VERTEX
  5
4D9
  8
DEFAULT
 62
     7
 10
49.82574019532447
 20
73.2668294756652
 30
0.0
  0
VERTEX
  5
4DA
  8
DEFAULT
 62
     7
 10
49.68518939070562
 20
73.33903337525005
 30
0.0
  0
VERTEX
  5
4DB
  8
DEFAULT
 62
     7
 10
49.53325377132616
 20
73.38244147568571
 30
0.0
  0
VERTEX
  5
4DC
  8
DEFAULT
 62
     7
 10
49.37578619643422
 20
73.39536539843274
 30
0.0
  0
VERTEX
  5
4DD
  8
DEFAULT
 62
     7
 10
49.21881339472354
 20
73.37732714228217
 30
0.0
  0
VERTEX
  5
4DE
  8
DEFAULT
 62
     7
 10
49.06836209488786
 20
73.32900988557009
 30
0.0
  0
VERTEX
  5
4DF
  8
DEFAULT
 62
     7
 10
48.930238194653
 20
73.25227643534734
 30
0.0
  0
VERTEX
  5
4E0
  8
DEFAULT
 62
     7
 10
48.80975058230057
 20
73.15004902824488
 30
0.0
  0
VERTEX
  5
4E1
  8
DEFAULT
 62
     7
 10
48.71152440871028
 20
73.0263031807508
 30
0.0
  0
VERTEX
  5
4E2
  8
DEFAULT
 62
     7
 10
48.63929535116706
 20
72.88576467557824
 30
0.0
  0
VERTEX
  5
4E3
  8
DEFAULT
 62
     7
 10
48.59588725073139
 20
72.73383800125066
 30
0.0
  0
VERTEX
  5
4E4
  8
DEFAULT
 62
     7
 10
48.58295438293251
 20
72.5763620403726
 30
0.0
  0
VERTEX
  5
4E5
  8
DEFAULT
 62
     7
 10
48.60100549759515
 20
72.41938029361006
 30
0.0
  0
VERTEX
  5
4E6
  8
DEFAULT
 62
     7
 10
48.64932331337296
 20
72.26893793882624
 30
0.0
  0
VERTEX
  5
4E7
  8
DEFAULT
 62
     7
 10
48.72606067705591
 20
72.1308263380377
 30
0.0
  0
VERTEX
  5
4E8
  8
DEFAULT
 62
     7
 10
48.82826236713424
 20
72.01032251277877
 30
0.0
  0
VERTEX
  5
4E9
  8
DEFAULT
 62
     7
 10
48.9520037421024
 20
71.91208292161068
 30
0.0
  0
VERTEX
  5
4EA
  8
DEFAULT
 62
     7
 10
49.09256796429905
 20
71.83987119510545
 30
0.0
  0
VERTEX
  5
4EB
  8
DEFAULT
 62
     7
 10
49.24449911115259
 20
71.79646700812997
 30
0.0
  0
VERTEX
  5
4EC
  8
DEFAULT
 62
     7
 10
49.4019840170825
 20
71.78353469939681
 30
0.0
  0
VERTEX
  5
4ED
  8
DEFAULT
 62
     7
 10
49.55895234626724
 20
71.80157686900759
 30
0.0
  0
VERTEX
  5
4EE
  8
DEFAULT
 62
     7
 10
49.70939078759088
 20
71.84988182627335
 30
0.0
  0
VERTEX
  5
4EF
  8
DEFAULT
 62
     7
 10
49.84751077436555
 20
71.92662813500816
 30
0.0
  0
VERTEX
  5
4F0
  8
DEFAULT
 62
     7
 10
49.96801907215041
 20
72.02884212453282
 30
0.0
  0
VERTEX
  5
4F1
  8
DEFAULT
 62
     7
 10
50.06625810425276
 20
72.15259691707877
 30
0.0
  0
VERTEX
  5
4F2
  8
DEFAULT
 62
     7
 10
50.1384620038376
 20
72.29313094972538
 30
0.0
  0
VERTEX
  5
4F3
  8
DEFAULT
 62
     7
 10
50.1818745767992
 20
72.44506656910484
 30
0.0
  0
SEQEND
  5
4F4
  8
DEFAULT
 62
     7
  0
POLYLINE
  5
4F5
  8
DEFAULT
 62
     7
 66
     1
 10
0.0
 20
0.0
 30
0.0
 70
     1
  0
VERTEX
  5
4F6
  8
DEFAULT
 62
     7
 10
33.36334389489163
 20
29.50021247940411
 30
0.0
  0
VERTEX
  5
4F7
  8
DEFAULT
 62
     7
 10
33.49651838611668
 20
29.41516180814455
 30
0.0
  0
VERTEX
  5
4F8
  8
DEFAULT
 62
     7
 10
33.64370418295606
 20
29.35771836226768
 30
0.0
  0
VERTEX
  5
4F9
  8
DEFAULT
 62
     7
 10
33.79928658816754
 20
29.33008541986088
 30
0.0
  0
VERTEX
  5
4FA
  8
DEFAULT
 62
     7
 10
33.95724222745184
 20
29.33335260005441
 30
0.0
  0
VERTEX
  5
4FB
  8
DEFAULT
 62
     7
 10
34.1115644984819
 20
29.36735386032301
 30
0.0
  0
VERTEX
  5
4FC
  8
DEFAULT
 62
     7
 10
34.25626580716591
 20
29.43081117638156
 30
0.0
  0
VERTEX
  5
4FD
  8
DEFAULT
 62
     7
 10
34.38580413480803
 20
29.52128758066272
 30
0.0
  0
VERTEX
  5
4FE
  8
DEFAULT
 62
     7
 10
34.49519261499379
 20
29.63529114854484
 30
0.0
  0
VERTEX
  5
4FF
  8
DEFAULT
 62
     7
 10
34.5802628535543
 20
29.76845949004674
 30
0.0
  0
VERTEX
  5
500
  8
DEFAULT
 62
     7
 10
34.63769511811634
 20
29.9156626179241
 30
0.0
  0
VERTEX
  5
501
  8
DEFAULT
 62
     7
 10
34.66533253304907
 20
30.07123607808372
 30
0.0
  0
VERTEX
  5
502
  8
DEFAULT
 62
     7
 10
34.6620821248278
 20
30.22920289868285
 30
0.0
  0
VERTEX
  5
503
  8
DEFAULT
 62
     7
 10
34.6280663288499
 20
30.38351398839809
 30
0.0
  0
VERTEX
  5
504
  8
DEFAULT
 62
     7
 10
34.56461292625154
 20
30.52821306081912
 30
0.0
  0
VERTEX
  5
505
  8
DEFAULT
 62
     7
 10
34.47412422252408
 20
30.65775138846125
 30
0.0
  0
VERTEX
  5
506
  8
DEFAULT
 62
     7
 10
34.36012009557622
 20
30.76716782193408
 30
0.0
  0
VERTEX
  5
507
  8
DEFAULT
 62
     7
 10
34.22696517165212
 20
30.85222296571957
 30
0.0
  0
VERTEX
  5
508
  8
DEFAULT
 62
     7
 10
34.0797681934979
 20
30.90966193907051
 30
0.0
  0
VERTEX
  5
509
  8
DEFAULT
 62
     7
 10
33.92419473333828
 20
30.93729040895138
 30
0.0
  0
VERTEX
  5
50A
  8
DEFAULT
 62
     7
 10
33.76621729049007
 20
30.93402155156063
 30
0.0
  0
VERTEX
  5
50B
  8
DEFAULT
 62
     7
 10
33.61191067330077
 20
30.90002029129202
 30
0.0
  0
VERTEX
  5
50C
  8
DEFAULT
 62
     7
 10
33.46720265582786
 20
30.83656241616772
 30
0.0
  0
VERTEX
  5
50D
  8
DEFAULT
 62
     7
 10
33.3376771866978
 20
30.74607986216342
 30
0.0
  0
VERTEX
  5
50E
  8
DEFAULT
 62
     7
 10
33.2282652257509
 20
30.63207853054426
 30
0.0
  0
VERTEX
  5
50F
  8
DEFAULT
 62
     7
 10
33.14318883746723
 20
30.49891913409423
 30
0.0
  0
VERTEX
  5
510
  8
DEFAULT
 62
     7
 10
33.08573868280146
 20
30.35171600621686
 30
0.0
  0
VERTEX
  5
511
  8
DEFAULT
 62
     7
 10
33.05811021292059
 20
30.19614422325446
 30
0.0
  0
VERTEX
  5
512
  8
DEFAULT
 62
     7
 10
33.06136900712799
 20
30.03816678040625
 30
0.0
  0
VERTEX
  5
513
  8
DEFAULT
 62
     7
 10
33.0953702673966
 20
29.88386854920308
 30
0.0
  0
VERTEX
  5
514
  8
DEFAULT
 62
     7
 10
33.15883820570424
 20
29.73915438200701
 30
0.0
  0
VERTEX
  5
515
  8
DEFAULT
 62
     7
 10
33.24931237372243
 20
29.60960766837876
 30
0.0
  0
SEQEND
  5
516
  8
DEFAULT
 62
     7
  0
POLYLINE
  5
517
  8
DEFAULT
 62
     7
 66
     1
 10
0.0
 20
0.0
 30
0.0
 70
     1
  0
VERTEX
  5
518
  8
DEFAULT
 62
     7
 10
50.76485994608468
 20
68.62843768293237
 30
0.0
  0
VERTEX
  5
519
  8
DEFAULT
 62
     7
 10
50.51144383143346
 20
68.41567012021659
 30
0.0
  0
VERTEX
  5
51A
  8
DEFAULT
 62
     7
 10
50.30703206529066
 20
68.15548931009283
 30
0.0
  0
VERTEX
  5
51B
  8
DEFAULT
 62
     7
 10
50.16268911774698
 20
67.86541637290073
 30
0.0
  0
VERTEX
  5
51C
  8
DEFAULT
 62
     7
 10
50.08158768688562
 20
67.56509855599501
 30
0.0
  0
VERTEX
  5
51D
  8
DEFAULT
 62
     7
 10
50.05952751179043
 20
67.27242875843346
 30
0.0
  0
VERTEX
  5
51E
  8
DEFAULT
 62
     7
 10
50.09108677290003
 20
66.98064172567781
 30
0.0
  0
VERTEX
  5
51F
  8
DEFAULT
 62
     7
 10
50.18188743531125
 20
66.68311756028253
 30
0.0
  0
VERTEX
  5
520
  8
DEFAULT
 62
     7
 10
50.3355969702886
 20
66.39788165988617
 30
0.0
  0
VERTEX
  5
521
  8
DEFAULT
 62
     7
 10
50.54835614701824
 20
66.14447393122109
 30
0.0
  0
VERTEX
  5
522
  8
DEFAULT
 62
     7
 10
50.80854590219388
 20
65.94005377909217
 30
0.0
  0
VERTEX
  5
523
  8
DEFAULT
 62
     7
 10
51.09861380779432
 20
65.79570188649662
 30
0.0
  0
VERTEX
  5
524
  8
DEFAULT
 62
     7
 10
51.39893609722598
 20
65.71460940068711
 30
0.0
  0
VERTEX
  5
525
  8
DEFAULT
 62
     7
 10
51.69159750880139
 20
65.69254922559193
 30
0.0
  0
VERTEX
  5
526
  8
DEFAULT
 62
     7
 10
51.98341025858115
 20
65.72410848670152
 30
0.0
  0
VERTEX
  5
527
  8
DEFAULT
 62
     7
 10
52.28091317947826
 20
65.81491306257294
 30
0.0
  0
VERTEX
  5
528
  8
DEFAULT
 62
     7
 10
52.56615746586073
 20
65.96861029810397
 30
0.0
  0
VERTEX
  5
529
  8
DEFAULT
 62
     7
 10
52.81954339096192
 20
66.18138624680586
 30
0.0
  0
VERTEX
  5
52A
  8
DEFAULT
 62
     7
 10
53.02396801561676
 20
66.44156705692964
 30
0.0
  0
VERTEX
  5
52B
  8
DEFAULT
 62
     7
 10
53.16833276672436
 20
66.73164838010787
 30
0.0
  0
VERTEX
  5
52C
  8
DEFAULT
 62
     7
 10
53.24942078000793
 20
67.03196172448766
 30
0.0
  0
VERTEX
  5
52D
  8
DEFAULT
 62
     7
 10
53.27150275866704
 20
67.32461922260289
 30
0.0
  0
VERTEX
  5
52E
  8
DEFAULT
 62
     7
 10
53.23991778053333
 20
67.61642358639652
 30
0.0
  0
VERTEX
  5
52F
  8
DEFAULT
 62
     7
 10
53.14910873213597
 20
67.91394775179181
 30
0.0
  0
VERTEX
  5
530
  8
DEFAULT
 62
     7
 10
52.99543330016887
 20
68.19918309312243
 30
0.0
  0
VERTEX
  5
531
  8
DEFAULT
 62
     7
 10
52.78264393388918
 20
68.45258243580139
 30
0.0
  0
VERTEX
  5
532
  8
DEFAULT
 62
     7
 10
52.52245865123948
 20
68.65699867447012
 30
0.0
  0
VERTEX
  5
533
  8
DEFAULT
 62
     7
 10
52.23236950114087
 20
68.80134162201381
 30
0.0
  0
VERTEX
  5
534
  8
DEFAULT
 62
     7
 10
51.93206845620739
 20
68.88243858034923
 30
0.0
  0
VERTEX
  5
535
  8
DEFAULT
 62
     7
 10
51.63939418611992
 20
68.90449875544442
 30
0.0
  0
VERTEX
  5
536
  8
DEFAULT
 62
     7
 10
51.34762001187631
 20
68.8729350218089
 30
0.0
  0
VERTEX
  5
537
  8
DEFAULT
 62
     7
 10
51.05007460198286
 20
68.7821349184634
 30
0.0
  0
SEQEND
  5
538
  8
DEFAULT
 62
     7
  0
POLYLINE
  5
539
  8
DEFAULT
 62
     7
 66
     1
 10
0.0
 20
0.0
 30
0.0
 70
     1
  0
VERTEX
  5
53A
  8
DEFAULT
 62
     7
 10
31.70052919555648
 20
28.28422548333256
 30
0.0
  0
VERTEX
  5
53B
  8
DEFAULT
 62
     7
 10
31.39556218794416
 20
28.57688745397372
 30
0.0
  0
VERTEX
  5
53C
  8
DEFAULT
 62
     7
 10
31.03935568698878
 20
28.80440876160857
 30
0.0
  0
VERTEX
  5
53D
  8
DEFAULT
 62
     7
 10
30.64561015775235
 20
28.95809313862754
 30
0.0
  0
VERTEX
  5
53E
  8
DEFAULT
 62
     7
 10
30.22946957304156
 20
29.03199436180369
 30
0.0
  0
VERTEX
  5
53F
  8
DEFAULT
 62
     7
 10
29.80688128313366
 20
29.02328020409039
 30
0.0
  0
VERTEX
  5
540
  8
DEFAULT
 62
     7
 10
29.39415267664345
 20
28.93229393185297
 30
0.0
  0
VERTEX
  5
541
  8
DEFAULT
 62
     7
 10
29.00705891159979
 20
28.76252746971304
 30
0.0
  0
VERTEX
  5
542
  8
DEFAULT
 62
     7
 10
28.66055164219427
 20
28.52051238272892
 30
0.0
  0
VERTEX
  5
543
  8
DEFAULT
 62
     7
 10
28.36788575809292
 20
28.21554984764254
 30
0.0
  0
VERTEX
  5
544
  8
DEFAULT
 62
     7
 10
28.14036445045808
 20
27.85934502388437
 30
0.0
  0
VERTEX
  5
545
  8
DEFAULT
 62
     7
 10
27.98668454596504
 20
27.46560396717388
 30
0.0
  0
VERTEX
  5
546
  8
DEFAULT
 62
     7
 10
27.91280680355004
 20
27.04944828768807
 30
0.0
  0
VERTEX
  5
547
  8
DEFAULT
 62
     7
 10
27.92152096126333
 20
26.62686447030609
 30
0.0
  0
VERTEX
  5
548
  8
DEFAULT
 62
     7
 10
28.01250499723779
 20
26.21409728827972
 30
0.0
  0
VERTEX
  5
549
  8
DEFAULT
 62
     7
 10
28.1822630733916
 20
25.82701414548515
 30
0.0
  0
VERTEX
  5
54A
  8
DEFAULT
 62
     7
 10
28.42426530186366
 20
25.48049010410739
 30
0.0
  0
VERTEX
  5
54B
  8
DEFAULT
 62
     7
 10
28.72923845919914
 20
25.18783931478107
 30
0.0
  0
VERTEX
  5
54C
  8
DEFAULT
 62
     7
 10
29.08543881043137
 20
24.96031129835733
 30
0.0
  0
VERTEX
  5
54D
  8
DEFAULT
 62
     7
 10
29.47917595368166
 20
24.80665263836246
 30
0.0
  0
VERTEX
  5
54E
  8
DEFAULT
 62
     7
 10
29.89534672794251
 20
24.73274526546315
 30
0.0
  0
VERTEX
  5
54F
  8
DEFAULT
 62
     7
 10
30.31791321428648
 20
24.74146780916257
 30
0.0
  0
VERTEX
  5
550
  8
DEFAULT
 62
     7
 10
30.73067983724712
 20
24.83244290008517
 30
0.0
  0
VERTEX
  5
551
  8
DEFAULT
 62
     7
 10
31.11775068059538
 20
25.00220768502788
 30
0.0
  0
VERTEX
  5
552
  8
DEFAULT
 62
     7
 10
31.46427919449907
 20
25.2442121497629
 30
0.0
  0
VERTEX
  5
553
  8
DEFAULT
 62
     7
 10
31.7569232750365
 20
25.54917915737522
 30
0.0
  0
VERTEX
  5
554
  8
DEFAULT
 62
     7
 10
31.9844535277232
 20
25.90538565833061
 30
0.0
  0
VERTEX
  5
555
  8
DEFAULT
 62
     7
 10
32.1381099514551
 20
26.29913118756703
 30
0.0
  0
VERTEX
  5
556
  8
DEFAULT
 62
     7
 10
32.21201956061737
 20
26.71528463078988
 30
0.0
  0
VERTEX
  5
557
  8
DEFAULT
 62
     7
 10
32.20331211169298
 20
27.13786621190888
 30
0.0
  0
VERTEX
  5
558
  8
DEFAULT
 62
     7
 10
32.11233031198149
 20
27.55062668514636
 30
0.0
  0
VERTEX
  5
559
  8
DEFAULT
 62
     7
 10
31.94257838555083
 20
27.93770367821777
 30
0.0
  0
SEQEND
  5
55A
  8
DEFAULT
 62
     7
  0
POLYLINE
  5
55B
  8
DEFAULT
 62
     7
 66
     1
 10
0.0
 20
0.0
 30
0.0
 70
     1
  0
VERTEX
  5
55C
  8
DEFAULT
 62
     7
 10
27.64400799502052
 20
106.8157558025248
 30
0.0
  0
VERTEX
  5
55D
  8
DEFAULT
 62
     7
 10
27.90419942739338
 20
106.6113356503959
 30
0.0
  0
VERTEX
  5
55E
  8
DEFAULT
 62
     7
 10
28.19428075057162
 20
106.4669882303262
 30
0.0
  0
VERTEX
  5
55F
  8
DEFAULT
 62
     7
 10
28.49460918972643
 20
106.3858873585306
 30
0.0
  0
VERTEX
  5
560
  8
DEFAULT
 62
     7
 10
28.78726836503888
 20
106.3638355694215
 30
0.0
  0
VERTEX
  5
561
  8
DEFAULT
 62
     7
 10
29.07907272883252
 20
106.3953903580052
 30
0.0
  0
VERTEX
  5
562
  8
DEFAULT
 62
     7
 10
29.37657732692685
 20
106.4861994064025
 30
0.0
  0
VERTEX
  5
563
  8
DEFAULT
 62
     7
 10
29.66181546358617
 20
106.6398966419336
 30
0.0
  0
VERTEX
  5
564
  8
DEFAULT
 62
     7
 10
29.91523157823739
 20
106.8526681181095
 30
0.0
  0
VERTEX
  5
565
  8
DEFAULT
 62
     7
 10
30.11967129766726
 20
107.1128450147731
 30
0.0
  0
VERTEX
  5
566
  8
DEFAULT
 62
     7
 10
30.26399691417295
 20
107.4029386373977
 30
0.0
  0
VERTEX
  5
567
  8
DEFAULT
 62
     7
 10
30.34509163624542
 20
107.7032525408432
 30
0.0
  0
VERTEX
  5
568
  8
DEFAULT
 62
     7
 10
30.36717361490453
 20
107.9959312834566
 30
0.0
  0
VERTEX
  5
569
  8
DEFAULT
 62
     7
 10
30.33559925901992
 20
108.2877138436863
 30
0.0
  0
VERTEX
  5
56A
  8
DEFAULT
 62
     7
 10
30.24479915567442
 20
108.5852463950677
 30
0.0
  0
VERTEX
  5
56B
  8
DEFAULT
 62
     7
 10
30.09109577042024
 20
108.870469436952
 30
0.0
  0
VERTEX
  5
56C
  8
DEFAULT
 62
     7
 10
29.87832373517853
 20
109.1238726930912
 30
0.0
  0
VERTEX
  5
56D
  8
DEFAULT
 62
     7
 10
29.61812335775381
 20
109.328301790272
 30
0.0
  0
VERTEX
  5
56E
  8
DEFAULT
 62
     7
 10
29.32800401810515
 20
109.4726408243555
 30
0.0
  0
VERTEX
  5
56F
  8
DEFAULT
 62
     7
 10
29.02769235092259
 20
109.553733310165
 30
0.0
  0
VERTEX
  5
570
  8
DEFAULT
 62
     7
 10
28.73501584457215
 20
109.5758018712463
 30
0.0
  0
VERTEX
  5
571
  8
DEFAULT
 62
     7
 10
28.44321818956741
 20
109.5442554686487
 30
0.0
  0
VERTEX
  5
572
  8
DEFAULT
 62
     7
 10
28.14569011071194
 20
109.4534380342652
 30
0.0
  0
VERTEX
  5
573
  8
DEFAULT
 62
     7
 10
27.86047769107672
 20
109.2997324127481
 30
0.0
  0
VERTEX
  5
574
  8
DEFAULT
 62
     7
 10
27.60708282092369
 20
109.0869693225583
 30
0.0
  0
VERTEX
  5
575
  8
DEFAULT
 62
     7
 10
27.40269229927906
 20
108.8267924258947
 30
0.0
  0
VERTEX
  5
576
  8
DEFAULT
 62
     7
 10
27.25834040668352
 20
108.5367071892563
 30
0.0
  0
VERTEX
  5
577
  8
DEFAULT
 62
     7
 10
27.17724792087402
 20
108.2363848998246
 30
0.0
  0
VERTEX
  5
578
  8
DEFAULT
 62
     7
 10
27.15519613176495
 20
107.9437151022631
 30
0.0
  0
VERTEX
  5
579
  8
DEFAULT
 62
     7
 10
27.18674700688842
 20
107.6519319829676
 30
0.0
  0
VERTEX
  5
57A
  8
DEFAULT
 62
     7
 10
27.27754766929965
 20
107.3544078175723
 30
0.0
  0
VERTEX
  5
57B
  8
DEFAULT
 62
     7
 10
27.43125944053996
 20
107.0691512317435
 30
0.0
  0
SEQEND
  5
57C
  8
DEFAULT
 62
     7
  0
POLYLINE
  5
57D
  8
DEFAULT
 62
     7
 66
     1
 10
0.0
 20
0.0
 30
0.0
 70
     1
  0
VERTEX
  5
57E
  8
DEFAULT
 62
     7
 10
96.78008408005459
 20
79.66505120492725
 30
0.0
  0
VERTEX
  5
57F
  8
DEFAULT
 62
     7
 10
96.47696422565232
 20
79.59517637322166
 30
0.0
  0
VERTEX
  5
580
  8
DEFAULT
 62
     7
 10
96.18174341111218
 20
79.46168880518135
 30
0.0
  0
VERTEX
  5
581
  8
DEFAULT
 62
     7
 10
95.91412758569173
 20
79.26706124858114
 30
0.0
  0
VERTEX
  5
582
  8
DEFAULT
 62
     7
 10
95.6921169890712
 20
79.02172810642102
 30
0.0
  0
VERTEX
  5
583
  8
DEFAULT
 62
     7
 10
95.52793615275492
 20
78.74239985371544
 30
0.0
  0
VERTEX
  5
584
  8
DEFAULT
 62
     7
 10
95.42613922627345
 20
78.44845035467154
 30
0.0
  0
VERTEX
  5
585
  8
DEFAULT
 62
     7
 10
95.38378440569484
 20
78.15802352886503
 30
0.0
  0
VERTEX
  5
586
  8
DEFAULT
 62
     7
 10
95.39495957080237
 20
77.86474770403966
 30
0.0
  0
VERTEX
  5
587
  8
DEFAULT
 62
     7
 10
95.46484278849411
 20
77.56161890458553
 30
0.0
  0
VERTEX
  5
588
  8
DEFAULT
 62
     7
 10
95.59832252961404
 20
77.26638970405924
 30
0.0
  0
VERTEX
  5
589
  8
DEFAULT
 62
     7
 10
95.79294114116239
 20
76.99880015472866
 30
0.0
  0
VERTEX
  5
58A
  8
DEFAULT
 62
     7
 10
96.03828322837437
 20
76.77675545509788
 30
0.0
  0
VERTEX
  5
58B
  8
DEFAULT
 62
     7
 10
96.31760253602808
 20
76.61258244570199
 30
0.0
  0
VERTEX
  5
58C
  8
DEFAULT
 62
     7
 10
96.61155203507201
 20
76.51079446427238
 30
0.0
  0
VERTEX
  5
58D
  8
DEFAULT
 62
     7
 10
96.90197047489235
 20
76.46843125770766
 30
0.0
  0
VERTEX
  5
58E
  8
DEFAULT
 62
     7
 10
97.19526307168996
 20
76.4796148088013
 30
0.0
  0
VERTEX
  5
58F
  8
DEFAULT
 62
     7
 10
97.49838348515802
 20
76.5495069715449
 30
0.0
  0
VERTEX
  5
590
  8
DEFAULT
 62
     7
 10
97.7936210716704
 20
76.68297776761298
 30
0.0
  0
VERTEX
  5
591
  8
DEFAULT
 62
     7
 10
98.06121956605286
 20
76.8775963791613
 30
0.0
  0
VERTEX
  5
592
  8
DEFAULT
 62
     7
 10
98.28323854865953
 20
77.12293846637331
 30
0.0
  0
VERTEX
  5
593
  8
DEFAULT
 62
     7
 10
98.44741994404156
 20
77.40225777402702
 30
0.0
  0
VERTEX
  5
594
  8
DEFAULT
 62
     7
 10
98.54921631145727
 20
77.6962246041089
 30
0.0
  0
VERTEX
  5
595
  8
DEFAULT
 62
     7
 10
98.59159684906
 20
77.98664248486354
 30
0.0
  0
VERTEX
  5
596
  8
DEFAULT
 62
     7
 10
98.58039596692836
 20
78.27992669567503
 30
0.0
  0
VERTEX
  5
597
  8
DEFAULT
 62
     7
 10
98.51051274923661
 20
78.58304710914307
 30
0.0
  0
VERTEX
  5
598
  8
DEFAULT
 62
     7
 10
98.37702462213055
 20
78.87828469565547
 30
0.0
  0
VERTEX
  5
599
  8
DEFAULT
 62
     7
 10
98.1824060105822
 20
79.14586641806567
 30
0.0
  0
VERTEX
  5
59A
  8
DEFAULT
 62
     7
 10
97.93708125440821
 20
79.36789378665846
 30
0.0
  0
VERTEX
  5
59B
  8
DEFAULT
 62
     7
 10
97.65773622973039
 20
79.53207518204046
 30
0.0
  0
VERTEX
  5
59C
  8
DEFAULT
 62
     7
 10
97.3637951166726
 20
79.6338715494562
 30
0.0
  0
VERTEX
  5
59D
  8
DEFAULT
 62
     7
 10
97.07337723591797
 20
79.67624314200707
 30
0.0
  0
SEQEND
  5
59E
  8
DEFAULT
 62
     7
  0
POLYLINE
  5
59F
  8
DEFAULT
 62
     7
 66
     1
 10
0.0
 20
0.0
 30
0.0
 70
     1
  0
VERTEX
  5
5A0
  8
DEFAULT
 62
     7
 10
55.82680833058973
 20
94.51831429852709
 30
0.0
  0
VERTEX
  5
5A1
  8
DEFAULT
 62
     7
 10
56.01996778055267
 20
94.89426923773641
 30
0.0
  0
VERTEX
  5
5A2
  8
DEFAULT
 62
     7
 10
56.13607455375445
 20
95.30067033816395
 30
0.0
  0
VERTEX
  5
5A3
  8
DEFAULT
 62
     7
 10
56.17067065997205
 20
95.72192302001532
 30
0.0
  0
VERTEX
  5
5A4
  8
DEFAULT
 62
     7
 10
56.12241266422858
 20
96.14182835342962
 30
0.0
  0
VERTEX
  5
5A5
  8
DEFAULT
 62
     7
 10
55.99316057824613
 20
96.54425393736909
 30
0.0
  0
VERTEX
  5
5A6
  8
DEFAULT
 62
     7
 10
55.78787834674377
 20
96.91372539117386
 30
0.0
  0
VERTEX
  5
5A7
  8
DEFAULT
 62
     7
 10
55.51449184473922
 20
97.23604803566636
 30
0.0
  0
VERTEX
  5
5A8
  8
DEFAULT
 62
     7
 10
55.18344218402137
 20
97.49885254131515
 30
0.0
  0
VERTEX
  5
5A9
  8
DEFAULT
 62
     7
 10
54.80748333135185
 20
97.69202093632995
 30
0.0
  0
VERTEX
  5
5AA
  8
DEFAULT
 62
     7
 10
54.40108670345025
 20
97.80812323700579
 30
0.0
  0
VERTEX
  5
5AB
  8
DEFAULT
 62
     7
 10
53.979842407585
 20
97.84270648471134
 30
0.0
  0
VERTEX
  5
5AC
  8
DEFAULT
 62
     7
 10
53.55993707417071
 20
97.79444848896789
 30
0.0
  0
VERTEX
  5
5AD
  8
DEFAULT
 62
     7
 10
53.15749024573306
 20
97.6652003164456
 30
0.0
  0
VERTEX
  5
5AE
  8
DEFAULT
 62
     7
 10
52.78802717791442
 20
97.45993541598123
 30
0.0
  0
VERTEX
  5
5AF
  8
DEFAULT
 62
     7
 10
52.46568328892374
 20
97.18652766947851
 30
0.0
  0
VERTEX
  5
5B0
  8
DEFAULT
 62
     7
 10
52.20290450029905
 20
96.85547800876067
 30
0.0
  0
VERTEX
  5
5B1
  8
DEFAULT
 62
     7
 10
52.00974896379631
 20
96.47954040058933
 30
0.0
  0
VERTEX
  5
5B2
  8
DEFAULT
 62
     7
 10
51.89364219059453
 20
96.07313091417566
 30
0.0
  0
VERTEX
  5
5B3
  8
DEFAULT
 62
     7
 10
51.85902875333894
 20
95.65186928727242
 30
0.0
  0
VERTEX
  5
5B4
  8
DEFAULT
 62
     7
 10
51.90730408012039
 20
95.23197289890999
 30
0.0
  0
VERTEX
  5
5B5
  8
DEFAULT
 62
     7
 10
52.03654778011673
 20
94.82954731497053
 30
0.0
  0
VERTEX
  5
5B6
  8
DEFAULT
 62
     7
 10
52.24182553909316
 20
94.46007586116576
 30
0.0
  0
VERTEX
  5
5B7
  8
DEFAULT
 62
     7
 10
52.51521651362366
 20
94.13773588563528
 30
0.0
  0
VERTEX
  5
5B8
  8
DEFAULT
 62
     7
 10
52.84627456032762
 20
93.87494032503835
 30
0.0
  0
VERTEX
  5
5B9
  8
DEFAULT
 62
     7
 10
53.22221216849896
 20
93.6817970879819
 30
0.0
  0
VERTEX
  5
5BA
  8
DEFAULT
 62
     7
 10
53.62861774145242
 20
93.56568640131994
 30
0.0
  0
VERTEX
  5
5BB
  8
DEFAULT
 62
     7
 10
54.04988328181586
 20
93.53109476762828
 30
0.0
  0
VERTEX
  5
5BC
  8
DEFAULT
 62
     7
 10
54.4697841427042
 20
93.57934381831987
 30
0.0
  0
VERTEX
  5
5BD
  8
DEFAULT
 62
     7
 10
54.87220972664368
 20
93.70859199084215
 30
0.0
  0
VERTEX
  5
5BE
  8
DEFAULT
 62
     7
 10
55.24168565297438
 20
93.9138658363584
 30
0.0
  0
VERTEX
  5
5BF
  8
DEFAULT
 62
     7
 10
55.56399991148076
 20
94.18728196884724
 30
0.0
  0
SEQEND
  5
5C0
  8
DEFAULT
 62
     7
  0
POLYLINE
  5
5C1
  8
DEFAULT
 62
     7
 66
     1
 10
0.0
 20
0.0
 30
0.0
 70
     1
  0
VERTEX
  5
5C2
  8
DEFAULT
 62
     7
 10
15.09391685550328
 20
14.07284701208606
 30
0.0
  0
VERTEX
  5
5C3
  8
DEFAULT
 62
     7
 10
14.78894984789096
 20
14.36549891954387
 30
0.0
  0
VERTEX
  5
5C4
  8
DEFAULT
 62
     7
 10
14.4327517329217
 20
14.59302693596762
 30
0.0
  0
VERTEX
  5
5C5
  8
DEFAULT
 62
     7
 10
14.03901347153991
 20
14.746684477831
 30
0.0
  0
VERTEX
  5
5C6
  8
DEFAULT
 62
     7
 10
13.62284269727908
 20
14.8205918507303
 30
0.0
  0
VERTEX
  5
5C7
  8
DEFAULT
 62
     7
 10
13.2002695021462
 20
14.81187042516237
 30
0.0
  0
VERTEX
  5
5C8
  8
DEFAULT
 62
     7
 10
12.78750064292259
 20
14.72087912133327
 30
0.0
  0
VERTEX
  5
5C9
  8
DEFAULT
 62
     7
 10
12.40042364985118
 20
14.55111265919333
 30
0.0
  0
VERTEX
  5
5CA
  8
DEFAULT
 62
     7
 10
12.05390911259103
 20
14.3091188167074
 30
0.0
  0
VERTEX
  5
5CB
  8
DEFAULT
 62
     7
 10
11.76124993727858
 20
14.00413559618858
 30
0.0
  0
VERTEX
  5
5CC
  8
DEFAULT
 62
     7
 10
11.53372918870948
 20
13.64793021336467
 30
0.0
  0
VERTEX
  5
5CD
  8
DEFAULT
 62
     7
 10
11.38005599300533
 20
13.25420033796901
 30
0.0
  0
VERTEX
  5
5CE
  8
DEFAULT
 62
     7
 10
11.30615588796067
 20
12.83802900464243
 30
0.0
  0
VERTEX
  5
5CF
  8
DEFAULT
 62
     7
 10
11.31489296736936
 20
12.41547090428457
 30
0.0
  0
VERTEX
  5
5D0
  8
DEFAULT
 62
     7
 10
11.40586134950306
 20
12.00271043104709
 30
0.0
  0
VERTEX
  5
5D1
  8
DEFAULT
 62
     7
 10
11.57561998472262
 20
11.61561778413492
 30
0.0
  0
VERTEX
  5
5D2
  8
DEFAULT
 62
     7
 10
11.81762277226041
 20
11.26908871116549
 30
0.0
  0
VERTEX
  5
5D3
  8
DEFAULT
 62
     7
 10
12.12257356696623
 20
10.9764586072716
 30
0.0
  0
VERTEX
  5
5D4
  8
DEFAULT
 62
     7
 10
12.47879516269664
 20
10.74893897683398
 30
0.0
  0
VERTEX
  5
5D5
  8
DEFAULT
 62
     7
 10
12.87253342407842
 20
10.59526466299835
 30
0.0
  0
VERTEX
  5
5D6
  8
DEFAULT
 62
     7
 10
13.28868910356424
 20
10.52135729009905
 30
0.0
  0
VERTEX
  5
5D7
  8
DEFAULT
 62
     7
 10
13.71127068468324
 20
10.53006362089195
 30
0.0
  0
VERTEX
  5
5D8
  8
DEFAULT
 62
     7
 10
14.12403115792072
 20
10.62104765686641
 30
0.0
  0
VERTEX
  5
5D9
  8
DEFAULT
 62
     7
 10
14.51110815099213
 20
10.79080573302023
 30
0.0
  0
VERTEX
  5
5DA
  8
DEFAULT
 62
     7
 10
14.85763610583008
 20
11.03283926917381
 30
0.0
  0
VERTEX
  5
5DB
  8
DEFAULT
 62
     7
 10
15.15028186356473
 20
11.33779118201111
 30
0.0
  0
VERTEX
  5
5DC
  8
DEFAULT
 62
     7
 10
15.37781714784312
 20
11.69399656483502
 30
0.0
  0
VERTEX
  5
5DD
  8
DEFAULT
 62
     7
 10
15.53148307569262
 20
12.08774209407144
 30
0.0
  0
VERTEX
  5
5DE
  8
DEFAULT
 62
     7
 10
15.60538318073729
 20
12.50390615954338
 30
0.0
  0
VERTEX
  5
5DF
  8
DEFAULT
 62
     7
 10
15.59667684994438
 20
12.92647879561052
 30
0.0
  0
VERTEX
  5
5E0
  8
DEFAULT
 62
     7
 10
15.50569281396992
 20
13.33924709576838
 30
0.0
  0
VERTEX
  5
5E1
  8
DEFAULT
 62
     7
 10
15.33592635182998
 20
13.7263162619194
 30
0.0
  0
SEQEND
  5
5E2
  8
DEFAULT
 62
     7
  0
POLYLINE
  5
5E3
  8
DEFAULT
 62
     7
 66
     1
 10
0.0
 20
0.0
 30
0.0
 70
     1
  0
VERTEX
  5
5E4
  8
DEFAULT
 62
     7
 10
56.23508565564587
 20
93.66703048455079
 30
0.0
  0
VERTEX
  5
5E5
  8
DEFAULT
 62
     7
 10
56.15399316983635
 20
93.36670875418487
 30
0.0
  0
VERTEX
  5
5E6
  8
DEFAULT
 62
     7
 10
56.13193299474116
 20
93.07404734260943
 30
0.0
  0
VERTEX
  5
5E7
  8
DEFAULT
 62
     7
 10
56.16350064183689
 20
92.78226422331399
 30
0.0
  0
VERTEX
  5
5E8
  8
DEFAULT
 62
     7
 10
56.25428844573607
 20
92.48473167193256
 30
0.0
  0
VERTEX
  5
5E9
  8
DEFAULT
 62
     7
 10
56.40798959472728
 20
92.19949185807602
 30
0.0
  0
VERTEX
  5
5EA
  8
DEFAULT
 62
     7
 10
56.62076162996899
 20
91.946079656885
 30
0.0
  0
VERTEX
  5
5EB
  8
DEFAULT
 62
     7
 10
56.88094691261869
 20
91.7416678907422
 30
0.0
  0
VERTEX
  5
5EC
  8
DEFAULT
 62
     7
 10
57.17101090475894
 20
91.59732047067259
 30
0.0
  0
VERTEX
  5
5ED
  8
DEFAULT
 62
     7
 10
57.47133319419059
 20
91.51621959887697
 30
0.0
  0
VERTEX
  5
5EE
  8
DEFAULT
 62
     7
 10
57.76400299175214
 20
91.49415942378178
 30
0.0
  0
VERTEX
  5
5EF
  8
DEFAULT
 62
     7
 10
58.05579896955964
 20
91.52572259835156
 30
0.0
  0
VERTEX
  5
5F0
  8
DEFAULT
 62
     7
 10
58.35333543440125
 20
91.6165232607628
 30
0.0
  0
VERTEX
  5
5F1
  8
DEFAULT
 62
     7
 10
58.63856238974574
 20
91.77021993722808
 30
0.0
  0
VERTEX
  5
5F2
  8
DEFAULT
 62
     7
 10
58.89195781896451
 20
91.98298358648366
 30
0.0
  0
VERTEX
  5
5F3
  8
DEFAULT
 62
     7
 10
59.09638635707955
 20
92.24316886913336
 30
0.0
  0
VERTEX
  5
5F4
  8
DEFAULT
 62
     7
 10
59.24072091863712
 20
92.53324571978567
 30
0.0
  0
VERTEX
  5
5F5
  8
DEFAULT
 62
     7
 10
59.3218307354846
 20
92.83356745015159
 30
0.0
  0
VERTEX
  5
5F6
  8
DEFAULT
 62
     7
 10
59.34387805206774
 20
93.12622942079273
 30
0.0
  0
VERTEX
  5
5F7
  8
DEFAULT
 62
     7
 10
59.31232326348407
 20
93.41802036700858
 30
0.0
  0
VERTEX
  5
5F8
  8
DEFAULT
 62
     7
 10
59.22152707359877
 20
93.71555291838999
 30
0.0
  0
VERTEX
  5
5F9
  8
DEFAULT
 62
     7
 10
59.06782592460755
 20
94.00078434626042
 30
0.0
  0
VERTEX
  5
5FA
  8
DEFAULT
 62
     7
 10
58.85505388936586
 20
94.25418816146532
 30
0.0
  0
VERTEX
  5
5FB
  8
DEFAULT
 62
     7
 10
58.59488146522821
 20
94.45861669958035
 30
0.0
  0
VERTEX
  5
5FC
  8
DEFAULT
 62
     7
 10
58.30481747308795
 20
94.60296411964997
 30
0.0
  0
VERTEX
  5
5FD
  8
DEFAULT
 62
     7
 10
58.00449127019611
 20
94.68405660545947
 30
0.0
  0
VERTEX
  5
5FE
  8
DEFAULT
 62
     7
 10
57.71183824460682
 20
94.70610839456853
 30
0.0
  0
VERTEX
  5
5FF
  8
DEFAULT
 62
     7
 10
57.42002940828726
 20
94.67455360598487
 30
0.0
  0
VERTEX
  5
600
  8
DEFAULT
 62
     7
 10
57.12248399839379
 20
94.58375294357363
 30
0.0
  0
VERTEX
  5
601
  8
DEFAULT
 62
     7
 10
56.8372827600734
 20
94.43005626710836
 30
0.0
  0
VERTEX
  5
602
  8
DEFAULT
 62
     7
 10
56.58386217289626
 20
94.21728423186666
 30
0.0
  0
VERTEX
  5
603
  8
DEFAULT
 62
     7
 10
56.37942916225528
 20
93.95710733520308
 30
0.0
  0
SEQEND
  5
604
  8
DEFAULT
 62
     7
  0
POLYLINE
  5
605
  8
DEFAULT
 62
     7
 66
     1
 10
0.0
 20
0.0
 30
0.0
 70
     1
  0
VERTEX
  5
606
  8
DEFAULT
 62
     7
 10
9.40663275366006
 20
10.18599108279082
 30
0.0
  0
VERTEX
  5
607
  8
DEFAULT
 62
     7
 10
9.261932563107539
 20
10.12252985327208
 30
0.0
  0
VERTEX
  5
608
  8
DEFAULT
 62
     7
 10
9.132369636572788
 20
10.0320422676761
 30
0.0
  0
VERTEX
  5
609
  8
DEFAULT
 62
     7
 10
9.022982274518515
 20
9.91803031380786
 30
0.0
  0
VERTEX
  5
60A
  8
DEFAULT
 62
     7
 10
8.937919862878383
 20
9.784859176977248
 30
0.0
  0
VERTEX
  5
60B
  8
DEFAULT
 62
     7
 10
8.880470826344098
 20
9.637686238649918
 30
0.0
  0
VERTEX
  5
60C
  8
DEFAULT
 62
     7
 10
8.85284179739749
 20
9.482112219424561
 30
0.0
  0
VERTEX
  5
60D
  8
DEFAULT
 62
     7
 10
8.85610785945953
 20
9.324126390590225
 30
0.0
  0
VERTEX
  5
60E
  8
DEFAULT
 62
     7
 10
8.89011582851704
 20
9.169827041255562
 30
0.0
  0
VERTEX
  5
60F
  8
DEFAULT
 62
     7
 10
8.95357649897004
 20
9.025110637796535
 30
0.0
  0
VERTEX
  5
610
  8
DEFAULT
 62
     7
 10
9.044056816711379
 20
8.89558684586369
 30
0.0
  0
VERTEX
  5
611
  8
DEFAULT
 62
     7
 10
9.158061502724982
 20
8.786176003048274
 30
0.0
  0
VERTEX
  5
612
  8
DEFAULT
 62
     7
 10
9.29122481263521
 20
8.701120859262785
 30
0.0
  0
VERTEX
  5
613
  8
DEFAULT
 62
     7
 10
9.4384134048033
 20
8.643657287019218
 30
0.0
  0
VERTEX
  5
614
  8
DEFAULT
 62
     7
 10
9.59398742402866
 20
8.61604335284763
 30
0.0
  0
VERTEX
  5
615
  8
DEFAULT
 62
     7
 10
9.751980520717638
 20
8.619308855843931
 30
0.0
  0
VERTEX
  5
616
  8
DEFAULT
 62
     7
 10
9.90627260219766
 20
8.65331682490144
 30
0.0
  0
VERTEX
  5
617
  8
DEFAULT
 62
     7
 10
10.05098844659094
 20
8.716786440406306
 30
0.0
  0
VERTEX
  5
618
  8
DEFAULT
 62
     7
 10
10.18052006544417
 20
8.807250545241137
 30
0.0
  0
VERTEX
  5
619
  8
DEFAULT
 62
     7
 10
10.28993873517997
 20
8.921255231254738
 30
0.0
  0
VERTEX
  5
61A
  8
DEFAULT
 62
     7
 10
10.37498549297934
 20
9.054411273310327
 30
0.0
  0
VERTEX
  5
61B
  8
DEFAULT
 62
     7
 10
10.4324261435275
 20
9.20162222810808
 30
0.0
  0
VERTEX
  5
61C
  8
DEFAULT
 62
     7
 10
10.46005573153985
 20
9.35718842041306
 30
0.0
  0
VERTEX
  5
61D
  8
DEFAULT
 62
     7
 10
10.45680532331857
 20
9.515158595406632
 30
0.0
  0
VERTEX
  5
61E
  8
DEFAULT
 62
     7
 10
10.42277443256566
 20
9.6694741576478
 30
0.0
  0
VERTEX
  5
61F
  8
DEFAULT
 62
     7
 10
10.35932885688768
 20
9.814167080345682
 30
0.0
  0
VERTEX
  5
620
  8
DEFAULT
 62
     7
 10
10.26884071222596
 20
9.943713793973929
 30
0.0
  0
VERTEX
  5
621
  8
DEFAULT
 62
     7
 10
10.1548365852781
 20
10.05311736893471
 30
0.0
  0
VERTEX
  5
622
  8
DEFAULT
 62
     7
 10
10.02166488938175
 20
10.13818704842948
 30
0.0
  0
VERTEX
  5
623
  8
DEFAULT
 62
     7
 10
9.874484124134037
 20
10.19562769897764
 30
0.0
  0
VERTEX
  5
624
  8
DEFAULT
 62
     7
 10
9.718910104908678
 20
10.22326511391037
 30
0.0
  0
VERTEX
  5
625
  8
DEFAULT
 62
     7
 10
9.560909740365062
 20
10.22000687876871
 30
0.0
  0
SEQEND
  5
626
  8
DEFAULT
 62
     7
  0
POLYLINE
  5
627
  8
DEFAULT
 62
     7
 66
     1
 10
0.0
 20
0.0
 30
0.0
 70
     1
  0
VERTEX
  5
628
  8
DEFAULT
 62
     7
 10
95.3529379534057
 20
82.74877621163027
 30
0.0
  0
VERTEX
  5
629
  8
DEFAULT
 62
     7
 10
95.49607387801339
 20
82.81571594819282
 30
0.0
  0
VERTEX
  5
62A
  8
DEFAULT
 62
     7
 10
95.62337706082089
 20
82.90928901761633
 30
0.0
  0
VERTEX
  5
62B
  8
DEFAULT
 62
     7
 10
95.72998474800825
 20
83.02591180849755
 30
0.0
  0
VERTEX
  5
62C
  8
DEFAULT
 62
     7
 10
95.81181911405676
 20
83.1610972591949
 30
0.0
  0
VERTEX
  5
62D
  8
DEFAULT
 62
     7
 10
95.86568174385913
 20
83.30963319980007
 30
0.0
  0
VERTEX
  5
62E
  8
DEFAULT
 62
     7
 10
95.88952533866978
 20
83.46583001826151
 30
0.0
  0
VERTEX
  5
62F
  8
DEFAULT
 62
     7
 10
95.88246210209127
 20
83.62368949823826
 30
0.0
  0
VERTEX
  5
630
  8
DEFAULT
 62
     7
 10
95.844722369209
 20
83.77712229567355
 30
0.0
  0
VERTEX
  5
631
  8
DEFAULT
 62
     7
 10
95.77778207358071
 20
83.92024144830903
 30
0.0
  0
VERTEX
  5
632
  8
DEFAULT
 62
     7
 10
95.68420900415718
 20
84.04756140308872
 30
0.0
  0
VERTEX
  5
633
  8
DEFAULT
 62
     7
 10
95.56757782728987
 20
84.15417747626223
 30
0.0
  0
VERTEX
  5
634
  8
DEFAULT
 62
     7
 10
95.43240076257862
 20
84.23599562940423
 30
0.0
  0
VERTEX
  5
635
  8
DEFAULT
 62
     7
 10
95.28385643598732
 20
84.28985825920658
 30
0.0
  0
VERTEX
  5
636
  8
DEFAULT
 62
     7
 10
95.12765123153976
 20
84.31370968093765
 30
0.0
  0
VERTEX
  5
637
  8
DEFAULT
 62
     7
 10
94.96980852353526
 20
84.30663805837298
 30
0.0
  0
VERTEX
  5
638
  8
DEFAULT
 62
     7
 10
94.81635895412774
 20
84.26890671147686
 30
0.0
  0
VERTEX
  5
639
  8
DEFAULT
 62
     7
 10
94.67323141550615
 20
84.20195802986242
 30
0.0
  0
VERTEX
  5
63A
  8
DEFAULT
 62
     7
 10
94.54593661868482
 20
84.10838496043893
 30
0.0
  0
VERTEX
  5
63B
  8
DEFAULT
 62
     7
 10
94.43932054551132
 20
83.9917621695577
 30
0.0
  0
VERTEX
  5
63C
  8
DEFAULT
 62
     7
 10
94.35750295143505
 20
83.85657671886037
 30
0.0
  0
VERTEX
  5
63D
  8
DEFAULT
 62
     7
 10
94.3036229905947
 20
83.70804077825517
 30
0.0
  0
VERTEX
  5
63E
  8
DEFAULT
 62
     7
 10
94.27976318287752
 20
83.55183613287336
 30
0.0
  0
VERTEX
  5
63F
  8
DEFAULT
 62
     7
 10
94.2868431914283
 20
83.39399286580311
 30
0.0
  0
VERTEX
  5
640
  8
DEFAULT
 62
     7
 10
94.32458292431056
 20
83.2405516823817
 30
0.0
  0
VERTEX
  5
641
  8
DEFAULT
 62
     7
 10
94.39152321993886
 20
83.09742414376012
 30
0.0
  0
VERTEX
  5
642
  8
DEFAULT
 62
     7
 10
94.48511306133462
 20
82.97011257496654
 30
0.0
  0
VERTEX
  5
643
  8
DEFAULT
 62
     7
 10
94.60173585221582
 20
82.86349650179304
 30
0.0
  0
VERTEX
  5
644
  8
DEFAULT
 62
     7
 10
94.73690453094092
 20
82.78168729370289
 30
0.0
  0
VERTEX
  5
645
  8
DEFAULT
 62
     7
 10
94.88544047154613
 20
82.72781627791441
 30
0.0
  0
VERTEX
  5
646
  8
DEFAULT
 62
     7
 10
95.04164511692792
 20
82.7039559111315
 30
0.0
  0
VERTEX
  5
647
  8
DEFAULT
 62
     7
 10
95.1994967699843
 20
82.71103647874803
 30
0.0
  0
SEQEND
  5
648
  8
DEFAULT
 62
     7
  0
POLYLINE
  5
649
  8
DEFAULT
 62
     7
 66
     1
 10
0.0
 20
0.0
 30
0.0
 70
     1
  0
VERTEX
  5
64A
  8
DEFAULT
 62
     7
 10
27.98360744812364
 20
31.33681611888951
 30
0.0
  0
VERTEX
  5
64B
  8
DEFAULT
 62
     7
 10
28.28389954800524
 20
31.21514720062522
 30
0.0
  0
VERTEX
  5
64C
  8
DEFAULT
 62
     7
 10
28.6093915361865
 20
31.15566092852879
 30
0.0
  0
VERTEX
  5
64D
  8
DEFAULT
 62
     7
 10
28.94017228628267
 20
31.16413412890748
 30
0.0
  0
VERTEX
  5
64E
  8
DEFAULT
 62
     7
 10
29.25565308423027
 20
31.23794981502517
 30
0.0
  0
VERTEX
  5
64F
  8
DEFAULT
 62
     7
 10
29.53868347027629
 20
31.3670291496935
 30
0.0
  0
VERTEX
  5
650
  8
DEFAULT
 62
     7
 10
29.77818443862072
 20
31.53668491681662
 30
0.0
  0
VERTEX
  5
651
  8
DEFAULT
 62
     7
 10
29.98279635029899
 20
31.74708539518273
 30
0.0
  0
VERTEX
  5
652
  8
DEFAULT
 62
     7
 10
30.15406054956049
 20
32.00676751866504
 30
0.0
  0
VERTEX
  5
653
  8
DEFAULT
 62
     7
 10
30.2757417672711
 20
32.3070640910726
 30
0.0
  0
VERTEX
  5
654
  8
DEFAULT
 62
     7
 10
30.33521741711845
 20
32.63255384299088
 30
0.0
  0
VERTEX
  5
655
  8
DEFAULT
 62
     7
 10
30.32673359449067
 20
32.96332788429815
 30
0.0
  0
VERTEX
  5
656
  8
DEFAULT
 62
     7
 10
30.25292461716187
 20
33.2788092413115
 30
0.0
  0
VERTEX
  5
657
  8
DEFAULT
 62
     7
 10
30.12386820418896
 20
33.56185472213252
 30
0.0
  0
VERTEX
  5
658
  8
DEFAULT
 62
     7
 10
29.95419957855378
 20
33.80135513141122
 30
0.0
  0
VERTEX
  5
659
  8
DEFAULT
 62
     7
 10
29.74379518672748
 20
34.00596536589226
 30
0.0
  0
VERTEX
  5
65A
  8
DEFAULT
 62
     7
 10
29.48410467725904
 20
34.17722509262784
 30
0.0
  0
VERTEX
  5
65B
  8
DEFAULT
 62
     7
 10
29.18382264056077
 20
34.29889568808935
 30
0.0
  0
VERTEX
  5
65C
  8
DEFAULT
 62
     7
 10
28.85833121144526
 20
34.35838196018579
 30
0.0
  0
VERTEX
  5
65D
  8
DEFAULT
 62
     7
 10
28.52756499705837
 20
34.34990708260987
 30
0.0
  0
VERTEX
  5
65E
  8
DEFAULT
 62
     7
 10
28.2120819628478
 20
34.27610816846443
 30
0.0
  0
VERTEX
  5
65F
  8
DEFAULT
 62
     7
 10
27.92903648202677
 20
34.14702212500721
 30
0.0
  0
VERTEX
  5
660
  8
DEFAULT
 62
     7
 10
27.68955955350922
 20
33.97736635788409
 30
0.0
  0
VERTEX
  5
661
  8
DEFAULT
 62
     7
 10
27.4849213657411
 20
33.76697258830688
 30
0.0
  0
VERTEX
  5
662
  8
DEFAULT
 62
     7
 10
27.31366219807127
 20
33.50727537004953
 30
0.0
  0
VERTEX
  5
663
  8
DEFAULT
 62
     7
 10
27.19198042129493
 20
33.20698550643089
 30
0.0
  0
VERTEX
  5
664
  8
DEFAULT
 62
     7
 10
27.13250253518461
 20
32.8814890457237
 30
0.0
  0
VERTEX
  5
665
  8
DEFAULT
 62
     7
 10
27.14097126303736
 20
32.55069990964142
 30
0.0
  0
VERTEX
  5
666
  8
DEFAULT
 62
     7
 10
27.21479589420692
 20
32.23521855262807
 30
0.0
  0
VERTEX
  5
667
  8
DEFAULT
 62
     7
 10
27.34385398437706
 20
31.95218816658206
 30
0.0
  0
VERTEX
  5
668
  8
DEFAULT
 62
     7
 10
27.51352037374927
 20
31.71270061581542
 30
0.0
  0
VERTEX
  5
669
  8
DEFAULT
 62
     7
 10
27.72392756090428
 20
31.5080624280473
 30
0.0
  0
SEQEND
  5
66A
  8
DEFAULT
 62
     7
  0
POLYLINE
  5
66B
  8
DEFAULT
 62
     7
 66
     1
 10
0.0
 20
0.0
 30
0.0
 70
     1
  0
VERTEX
  5
66C
  8
DEFAULT
 62
     7
 10
99.14793267257802
 20
81.29691658387684
 30
0.0
  0
VERTEX
  5
66D
  8
DEFAULT
 62
     7
 10
99.54527411266399
 20
81.1528246568511
 30
0.0
  0
VERTEX
  5
66E
  8
DEFAULT
 62
     7
 10
99.96310587124292
 20
81.08900674338928
 30
0.0
  0
VERTEX
  5
66F
  8
DEFAULT
 62
     7
 10
100.3853570445087
 20
81.10793670939762
 30
0.0
  0
VERTEX
  5
670
  8
DEFAULT
 62
     7
 10
100.7957929223929
 20
81.20887994249175
 30
0.0
  0
VERTEX
  5
671
  8
DEFAULT
 62
     7
 10
101.1786579141676
 20
81.38794702230787
 30
0.0
  0
VERTEX
  5
672
  8
DEFAULT
 62
     7
 10
101.51921057436
 20
81.63827094434264
 30
0.0
  0
VERTEX
  5
673
  8
DEFAULT
 62
     7
 10
101.8043989541683
 20
81.95022906905284
 30
0.0
  0
VERTEX
  5
674
  8
DEFAULT
 62
     7
 10
102.023244679626
 20
82.31183558600571
 30
0.0
  0
VERTEX
  5
675
  8
DEFAULT
 62
     7
 10
102.167353378624
 20
82.7091854120778
 30
0.0
  0
VERTEX
  5
676
  8
DEFAULT
 62
     7
 10
102.2311629060998
 20
83.12700878467061
 30
0.0
  0
VERTEX
  5
677
  8
DEFAULT
 62
     7
 10
102.2122418851433
 20
83.54925939887062
 30
0.0
  0
VERTEX
  5
678
  8
DEFAULT
 62
     7
 10
102.1112986520491
 20
83.95969583582055
 30
0.0
  0
VERTEX
  5
679
  8
DEFAULT
 62
     7
 10
101.9322142411951
 20
84.34255188254338
 30
0.0
  0
VERTEX
  5
67A
  8
DEFAULT
 62
     7
 10
101.6819160361844
 20
84.68313025975992
 30
0.0
  0
VERTEX
  5
67B
  8
DEFAULT
 62
     7
 10
101.3699495254881
 20
84.96831025358213
 30
0.0
  0
VERTEX
  5
67C
  8
DEFAULT
 62
     7
 10
101.0083430085352
 20
85.18716492409172
 30
0.0
  0
VERTEX
  5
67D
  8
DEFAULT
 62
     7
 10
100.6110015684492
 20
85.33126467803785
 30
0.0
  0
VERTEX
  5
67E
  8
DEFAULT
 62
     7
 10
100.1931865818425
 20
85.39507420551357
 30
0.0
  0
VERTEX
  5
67F
  8
DEFAULT
 62
     7
 10
99.7709359676425
 20
85.37613585351907
 30
0.0
  0
VERTEX
  5
680
  8
DEFAULT
 62
     7
 10
99.36048275872032
 20
85.27520100641108
 30
0.0
  0
VERTEX
  5
681
  8
DEFAULT
 62
     7
 10
98.97762615293176
 20
85.09613392659497
 30
0.0
  0
VERTEX
  5
682
  8
DEFAULT
 62
     7
 10
98.63704833478096
 20
84.84581000456018
 30
0.0
  0
VERTEX
  5
683
  8
DEFAULT
 62
     7
 10
98.351867781893
 20
84.53385187984998
 30
0.0
  0
VERTEX
  5
684
  8
DEFAULT
 62
     7
 10
98.13301367044916
 20
84.17225430794898
 30
0.0
  0
VERTEX
  5
685
  8
DEFAULT
 62
     7
 10
97.98892230248917
 20
83.77490448187689
 30
0.0
  0
VERTEX
  5
686
  8
DEFAULT
 62
     7
 10
97.92510438902733
 20
83.35706377824609
 30
0.0
  0
VERTEX
  5
687
  8
DEFAULT
 62
     7
 10
97.94404218195606
 20
82.9348299360183
 30
0.0
  0
VERTEX
  5
688
  8
DEFAULT
 62
     7
 10
98.04497702906407
 20
82.52439405813415
 30
0.0
  0
VERTEX
  5
689
  8
DEFAULT
 62
     7
 10
98.22404466794592
 20
82.14152906635945
 30
0.0
  0
VERTEX
  5
68A
  8
DEFAULT
 62
     7
 10
98.47436803091495
 20
81.80095907512901
 30
0.0
  0
VERTEX
  5
68B
  8
DEFAULT
 62
     7
 10
98.78632615562518
 20
81.5157790813068
 30
0.0
  0
SEQEND
  5
68C
  8
DEFAULT
 62
     7
  0
POLYLINE
  5
68D
  8
DEFAULT
 62
     7
 66
     1
 10
0.0
 20
0.0
 30
0.0
 70
     1
  0
VERTEX
  5
68E
  8
DEFAULT
 62
     7
 10
26.65458071350838
 20
112.4728928433215
 30
0.0
  0
VERTEX
  5
68F
  8
DEFAULT
 62
     7
 10
26.80502530455515
 20
112.5212022731132
 30
0.0
  0
VERTEX
  5
690
  8
DEFAULT
 62
     7
 10
26.9431408188039
 20
112.5979524953082
 30
0.0
  0
VERTEX
  5
691
  8
DEFAULT
 62
     7
 10
27.06363905340542
 20
112.7001670438986
 30
0.0
  0
VERTEX
  5
692
  8
DEFAULT
 62
     7
 10
27.16188032177073
 20
112.8239212773788
 30
0.0
  0
VERTEX
  5
693
  8
DEFAULT
 62
     7
 10
27.23406856751483
 20
112.9644553100254
 30
0.0
  0
VERTEX
  5
694
  8
DEFAULT
 62
     7
 10
27.27748561300235
 20
113.1163864568789
 30
0.0
  0
VERTEX
  5
695
  8
DEFAULT
 62
     7
 10
27.29041177201235
 20
113.2738713628089
 30
0.0
  0
VERTEX
  5
696
  8
DEFAULT
 62
     7
 10
27.27238861063678
 20
113.4308441645195
 30
0.0
  0
VERTEX
  5
697
  8
DEFAULT
 62
     7
 10
27.2240752673849
 20
113.5812993778154
 30
0.0
  0
VERTEX
  5
698
  8
DEFAULT
 62
     7
 10
27.14734405342511
 20
113.7194109786039
 30
0.0
  0
VERTEX
  5
699
  8
DEFAULT
 62
     7
 10
27.04512726857175
 20
113.8399153629286
 30
0.0
  0
VERTEX
  5
69A
  8
DEFAULT
 62
     7
 10
26.92135570405355
 20
113.938154395031
 30
0.0
  0
VERTEX
  5
69B
  8
DEFAULT
 62
     7
 10
26.78080657663191
 20
114.0103750665881
 30
0.0
  0
VERTEX
  5
69C
  8
DEFAULT
 62
     7
 10
26.62888828829045
 20
114.0537703085117
 30
0.0
  0
VERTEX
  5
69D
  8
DEFAULT
 62
     7
 10
26.4714056186235
 20
114.0667031763106
 30
0.0
  0
VERTEX
  5
69E
  8
DEFAULT
 62
     7
 10
26.31444399822765
 20
114.048660447634
 30
0.0
  0
VERTEX
  5
69F
  8
DEFAULT
 62
     7
 10
26.16398207614287
 20
114.0003426318563
 30
0.0
  0
VERTEX
  5
6A0
  8
DEFAULT
 62
     7
 10
26.02586600282839
 20
113.9236097406992
 30
0.0
  0
VERTEX
  5
6A1
  8
DEFAULT
 62
     7
 10
25.90537671327874
 20
113.8213868061227
 30
0.0
  0
VERTEX
  5
6A2
  8
DEFAULT
 62
     7
 10
25.80712705892731
 20
113.6976409586286
 30
0.0
  0
VERTEX
  5
6A3
  8
DEFAULT
 62
     7
 10
25.73491477335633
 20
113.5570979809302
 30
0.0
  0
VERTEX
  5
6A4
  8
DEFAULT
 62
     7
 10
25.69151338170957
 20
113.4051495030387
 30
0.0
  0
VERTEX
  5
6A5
  8
DEFAULT
 62
     7
 10
25.6785743641875
 20
113.2476908731986
 30
0.0
  0
VERTEX
  5
6A6
  8
DEFAULT
 62
     7
 10
25.69661877006126
 20
113.0906923544638
 30
0.0
  0
VERTEX
  5
6A7
  8
DEFAULT
 62
     7
 10
25.7449343495761
 20
112.940262858192
 30
0.0
  0
VERTEX
  5
6A8
  8
DEFAULT
 62
     7
 10
25.82167171325905
 20
112.8021423123516
 30
0.0
  0
VERTEX
  5
6A9
  8
DEFAULT
 62
     7
 10
25.92387340333739
 20
112.6816468730788
 30
0.0
  0
VERTEX
  5
6AA
  8
DEFAULT
 62
     7
 10
26.04764273159262
 20
112.5833994549903
 30
0.0
  0
VERTEX
  5
6AB
  8
DEFAULT
 62
     7
 10
26.1881857092911
 20
112.5111871694194
 30
0.0
  0
VERTEX
  5
6AC
  8
DEFAULT
 62
     7
 10
26.34013362811687
 20
112.4677829824439
 30
0.0
  0
VERTEX
  5
6AD
  8
DEFAULT
 62
     7
 10
26.49759281702269
 20
112.4548506737107
 30
0.0
  0
SEQEND
  5
6AE
  8
DEFAULT
 62
     7
  0
POLYLINE
  5
6AF
  8
DEFAULT
 62
     7
 66
     1
 10
0.0
 20
0.0
 30
0.0
 70
     1
  0
VERTEX
  5
6B0
  8
DEFAULT
 62
     7
 10
58.71847804216929
 20
95.01855290647384
 30
0.0
  0
VERTEX
  5
6B1
  8
DEFAULT
 62
     7
 10
58.8704008030367
 20
94.97514033351226
 30
0.0
  0
VERTEX
  5
6B2
  8
DEFAULT
 62
     7
 10
59.02788962242681
 20
94.96221641076524
 30
0.0
  0
VERTEX
  5
6B3
  8
DEFAULT
 62
     7
 10
59.18485795161156
 20
94.98025858037602
 30
0.0
  0
VERTEX
  5
6B4
  8
DEFAULT
 62
     7
 10
59.33530030639538
 20
95.02856801016772
 30
0.0
  0
VERTEX
  5
6B5
  8
DEFAULT
 62
     7
 10
59.47342085223579
 20
95.1053182323627
 30
0.0
  0
VERTEX
  5
6B6
  8
DEFAULT
 62
     7
 10
59.59392076403454
 20
95.20751544991512
 30
0.0
  0
VERTEX
  5
6B7
  8
DEFAULT
 62
     7
 10
59.69215532361095
 20
95.3312786284472
 30
0.0
  0
VERTEX
  5
6B8
  8
DEFAULT
 62
     7
 10
59.76437152264211
 20
95.47182104707994
 30
0.0
  0
VERTEX
  5
6B9
  8
DEFAULT
 62
     7
 10
59.80778018214352
 20
95.62374380794732
 30
0.0
  0
VERTEX
  5
6BA
  8
DEFAULT
 62
     7
 10
59.82070801835074
 20
95.78122815481152
 30
0.0
  0
VERTEX
  5
6BB
  8
DEFAULT
 62
     7
 10
59.80266584873996
 20
95.93820095652221
 30
0.0
  0
VERTEX
  5
6BC
  8
DEFAULT
 62
     7
 10
59.75434803296215
 20
96.08863939784581
 30
0.0
  0
VERTEX
  5
6BD
  8
DEFAULT
 62
     7
 10
59.67761514180513
 20
96.2267593846205
 30
0.0
  0
VERTEX
  5
6BE
  8
DEFAULT
 62
     7
 10
59.5754134517268
 20
96.34726376894515
 30
0.0
  0
VERTEX
  5
6BF
  8
DEFAULT
 62
     7
 10
59.45164580066879
 20
96.44550280104752
 30
0.0
  0
VERTEX
  5
6C0
  8
DEFAULT
 62
     7
 10
59.31110338203604
 20
96.51770670063235
 30
0.0
  0
VERTEX
  5
6C1
  8
DEFAULT
 62
     7
 10
59.1591638491964
 20
96.5611103285421
 30
0.0
  0
VERTEX
  5
6C2
  8
DEFAULT
 62
     7
 10
59.00168732925261
 20
96.5740515823271
 30
0.0
  0
VERTEX
  5
6C3
  8
DEFAULT
 62
     7
 10
58.84471061408173
 20
96.55600046766448
 30
0.0
  0
VERTEX
  5
6C4
  8
DEFAULT
 62
     7
 10
58.69427217275811
 20
96.50769998292463
 30
0.0
  0
VERTEX
  5
6C5
  8
DEFAULT
 62
     7
 10
58.55616057196956
 20
96.43094976072963
 30
0.0
  0
VERTEX
  5
6C6
  8
DEFAULT
 62
     7
 10
58.43565674671063
 20
96.32874359812536
 30
0.0
  0
VERTEX
  5
6C7
  8
DEFAULT
 62
     7
 10
58.33742610059441
 20
96.20498936464516
 30
0.0
  0
VERTEX
  5
6C8
  8
DEFAULT
 62
     7
 10
58.26520095651138
 20
96.06445533199856
 30
0.0
  0
VERTEX
  5
6C9
  8
DEFAULT
 62
     7
 10
58.22180571458777
 20
95.91251524009316
 30
0.0
  0
VERTEX
  5
6CA
  8
DEFAULT
 62
     7
 10
58.20886446080274
 20
95.75503089322898
 30
0.0
  0
VERTEX
  5
6CB
  8
DEFAULT
 62
     7
 10
58.22692396145152
 20
95.59806647750442
 30
0.0
  0
VERTEX
  5
6CC
  8
DEFAULT
 62
     7
 10
58.27523730470339
 20
95.4476280361808
 30
0.0
  0
VERTEX
  5
6CD
  8
DEFAULT
 62
     7
 10
58.35197466838635
 20
95.30950804940612
 30
0.0
  0
VERTEX
  5
6CE
  8
DEFAULT
 62
     7
 10
58.45418083099061
 20
95.18900422414718
 30
0.0
  0
VERTEX
  5
6CF
  8
DEFAULT
 62
     7
 10
58.57793953699676
 20
95.09075624699298
 30
0.0
  0
SEQEND
  5
6D0
  8
DEFAULT
 62
     7
  0
POLYLINE
  5
6D1
  8
DEFAULT
 62
     7
 66
     1
 10
0.0
 20
0.0
 30
0.0
 70
     1
  0
VERTEX
  5
6D2
  8
DEFAULT
 62
     7
 10
49.8028011688836
 20
95.77573477483523
 30
0.0
  0
VERTEX
  5
6D3
  8
DEFAULT
 62
     7
 10
49.75447943964559
 20
95.92618160214496
 30
0.0
  0
VERTEX
  5
6D4
  8
DEFAULT
 62
     7
 10
49.67774598942282
 20
96.0642932029335
 30
0.0
  0
VERTEX
  5
6D5
  8
DEFAULT
 62
     7
 10
49.57555324439635
 20
96.18478864220631
 30
0.0
  0
VERTEX
  5
6D6
  8
DEFAULT
 62
     7
 10
49.45177720735222
 20
96.28303606029479
 30
0.0
  0
VERTEX
  5
6D7
  8
DEFAULT
 62
     7
 10
49.31122193020743
 20
96.35523995987961
 30
0.0
  0
VERTEX
  5
6D8
  8
DEFAULT
 62
     7
 10
49.15930364186597
 20
96.3986441468551
 30
0.0
  0
VERTEX
  5
6D9
  8
DEFAULT
 62
     7
 10
49.00183159444809
 20
96.41158484157437
 30
0.0
  0
VERTEX
  5
6DA
  8
DEFAULT
 62
     7
 10
48.84484593422536
 20
96.39355105794974
 30
0.0
  0
VERTEX
  5
6DB
  8
DEFAULT
 62
     7
 10
48.69440357944155
 20
96.3452332421719
 30
0.0
  0
VERTEX
  5
6DC
  8
DEFAULT
 62
     7
 10
48.55626234816869
 20
96.26849140596303
 30
0.0
  0
VERTEX
  5
6DD
  8
DEFAULT
 62
     7
 10
48.43580492536631
 20
96.16627685737262
 30
0.0
  0
VERTEX
  5
6DE
  8
DEFAULT
 62
     7
 10
48.33754856222598
 20
96.04252262389242
 30
0.0
  0
VERTEX
  5
6DF
  8
DEFAULT
 62
     7
 10
48.26532789066888
 20
95.90198020525969
 30
0.0
  0
VERTEX
  5
6E0
  8
DEFAULT
 62
     7
 10
48.22191979023322
 20
95.75004905840616
 30
0.0
  0
VERTEX
  5
6E1
  8
DEFAULT
 62
     7
 10
48.2089785364482
 20
95.59257253846236
 30
0.0
  0
VERTEX
  5
6E2
  8
DEFAULT
 62
     7
 10
48.22702517858491
 20
95.43559973675168
 30
0.0
  0
VERTEX
  5
6E3
  8
DEFAULT
 62
     7
 10
48.27534746688865
 20
95.28516185449381
 30
0.0
  0
VERTEX
  5
6E4
  8
DEFAULT
 62
     7
 10
48.35208483057161
 20
95.14704186771912
 30
0.0
  0
VERTEX
  5
6E5
  8
DEFAULT
 62
     7
 10
48.454299379162
 20
95.02654586938058
 30
0.0
  0
VERTEX
  5
6E6
  8
DEFAULT
 62
     7
 10
48.57806647115426
 20
94.92829845129211
 30
0.0
  0
VERTEX
  5
6E7
  8
DEFAULT
 62
     7
 10
48.71860497632681
 20
94.85608616572114
 30
0.0
  0
VERTEX
  5
6E8
  8
DEFAULT
 62
     7
 10
48.87052326466828
 20
94.81267359275954
 30
0.0
  0
VERTEX
  5
6E9
  8
DEFAULT
 62
     7
 10
49.0280081705982
 20
94.7997496700125
 30
0.0
  0
VERTEX
  5
6EA
  8
DEFAULT
 62
     7
 10
49.18498097230887
 20
94.81778345363716
 30
0.0
  0
VERTEX
  5
6EB
  8
DEFAULT
 62
     7
 10
49.33543618560475
 20
94.8661096554011
 30
0.0
  0
VERTEX
  5
6EC
  8
DEFAULT
 62
     7
 10
49.47355617237941
 20
94.94284310562387
 30
0.0
  0
VERTEX
  5
6ED
  8
DEFAULT
 62
     7
 10
49.59405608417816
 20
95.04506604020037
 30
0.0
  0
VERTEX
  5
6EE
  8
DEFAULT
 62
     7
 10
49.69227834430826
 20
95.16880350170834
 30
0.0
  0
VERTEX
  5
6EF
  8
DEFAULT
 62
     7
 10
49.76452026036353
 20
95.30934592034106
 30
0.0
  0
VERTEX
  5
6F0
  8
DEFAULT
 62
     7
 10
49.80791997481307
 20
95.46127706719459
 30
0.0
  0
VERTEX
  5
6F1
  8
DEFAULT
 62
     7
 10
49.82083942503419
 20
95.6187535871384
 30
0.0
  0
SEQEND
  5
6F2
  8
DEFAULT
 62
     7
  0
POLYLINE
  5
6F3
  8
DEFAULT
 62
     7
 66
     1
 10
0.0
 20
0.0
 30
0.0
 70
     1
  0
VERTEX
  5
6F4
  8
DEFAULT
 62
     7
 10
105.789772889371
 20
104.6846933551049
 30
0.0
  0
VERTEX
  5
6F5
  8
DEFAULT
 62
     7
 10
105.5104189196413
 20
104.848883136473
 30
0.0
  0
VERTEX
  5
6F6
  8
DEFAULT
 62
     7
 10
105.2164694205974
 20
104.9506454008785
 30
0.0
  0
VERTEX
  5
6F7
  8
DEFAULT
 62
     7
 10
104.9260772568668
 20
104.9930259384813
 30
0.0
  0
VERTEX
  5
6F8
  8
DEFAULT
 62
     7
 10
104.6327924869896
 20
104.9818418283219
 30
0.0
  0
VERTEX
  5
6F9
  8
DEFAULT
 62
     7
 10
104.3296385295771
 20
104.9119586106301
 30
0.0
  0
VERTEX
  5
6FA
  8
DEFAULT
 62
     7
 10
104.0344177150369
 20
104.7784710425898
 30
0.0
  0
VERTEX
  5
6FB
  8
DEFAULT
 62
     7
 10
103.7668359926267
 20
104.5838351000035
 30
0.0
  0
VERTEX
  5
6FC
  8
DEFAULT
 62
     7
 10
103.5448002380478
 20
104.3385187298156
 30
0.0
  0
VERTEX
  5
6FD
  8
DEFAULT
 62
     7
 10
103.3806188426658
 20
104.0591820911239
 30
0.0
  0
VERTEX
  5
6FE
  8
DEFAULT
 62
     7
 10
103.2788392472223
 20
103.76523259208
 30
0.0
  0
VERTEX
  5
6FF
  8
DEFAULT
 62
     7
 10
103.2364592686853
 20
103.4748057662735
 30
0.0
  0
VERTEX
  5
700
  8
DEFAULT
 62
     7
 10
103.247660150817
 20
103.1815299414481
 30
0.0
  0
VERTEX
  5
701
  8
DEFAULT
 62
     7
 10
103.3175260374707
 20
102.8784017010597
 30
0.0
  0
VERTEX
  5
702
  8
DEFAULT
 62
     7
 10
103.4510052195249
 20
102.5831808865196
 30
0.0
  0
VERTEX
  5
703
  8
DEFAULT
 62
     7
 10
103.6456327761251
 20
102.3155823921371
 30
0.0
  0
VERTEX
  5
704
  8
DEFAULT
 62
     7
 10
103.8909743042714
 20
102.0935376925063
 30
0.0
  0
VERTEX
  5
705
  8
DEFAULT
 62
     7
 10
104.1702941709908
 20
101.9293736281623
 30
0.0
  0
VERTEX
  5
706
  8
DEFAULT
 62
     7
 10
104.4642693870588
 20
101.8275856467327
 30
0.0
  0
VERTEX
  5
707
  8
DEFAULT
 62
     7
 10
104.7546872678135
 20
101.7852134951161
 30
0.0
  0
VERTEX
  5
708
  8
DEFAULT
 62
     7
 10
105.0479630926388
 20
101.7963886602236
 30
0.0
  0
VERTEX
  5
709
  8
DEFAULT
 62
     7
 10
105.351074561055
 20
101.8662892089534
 30
0.0
  0
VERTEX
  5
70A
  8
DEFAULT
 62
     7
 10
105.6463210926193
 20
101.9997516190353
 30
0.0
  0
VERTEX
  5
70B
  8
DEFAULT
 62
     7
 10
105.9139028150295
 20
102.194395388542
 30
0.0
  0
VERTEX
  5
70C
  8
DEFAULT
 62
     7
 10
106.1359385696084
 20
102.4397207037818
 30
0.0
  0
VERTEX
  5
70D
  8
DEFAULT
 62
     7
 10
106.3001199649904
 20
102.7190483974216
 30
0.0
  0
VERTEX
  5
70E
  8
DEFAULT
 62
     7
 10
106.40190794642
 20
103.0130068415174
 30
0.0
  0
VERTEX
  5
70F
  8
DEFAULT
 62
     7
 10
106.4442795389708
 20
103.3034336673239
 30
0.0
  0
VERTEX
  5
710
  8
DEFAULT
 62
     7
 10
106.4330959878772
 20
103.5967005470974
 30
0.0
  0
VERTEX
  5
711
  8
DEFAULT
 62
     7
 10
106.3631870531614
 20
103.8998377325376
 30
0.0
  0
VERTEX
  5
712
  8
DEFAULT
 62
     7
 10
106.2297246430794
 20
104.1950669330639
 30
0.0
  0
VERTEX
  5
713
  8
DEFAULT
 62
     7
 10
106.0350976455449
 20
104.4626486554741
 30
0.0
  0
SEQEND
  5
714
  8
DEFAULT
 62
     7
  0
POLYLINE
  5
715
  8
DEFAULT
 62
     7
 66
     1
 10
0.0
 20
0.0
 30
0.0
 70
     1
  0
VERTEX
  5
716
  8
DEFAULT
 62
     7
 10
102.152476080176
 20
81.07260263640119
 30
0.0
  0
VERTEX
  5
717
  8
DEFAULT
 62
     7
 10
102.0506880987465
 20
80.77864419230538
 30
0.0
  0
VERTEX
  5
718
  8
DEFAULT
 62
     7
 10
102.0083159471299
 20
80.48822631155078
 30
0.0
  0
VERTEX
  5
719
  8
DEFAULT
 62
     7
 10
102.0195168292615
 20
80.19495048672542
 30
0.0
  0
VERTEX
  5
71A
  8
DEFAULT
 62
     7
 10
102.0893916609671
 20
79.89182168727126
 30
0.0
  0
VERTEX
  5
71B
  8
DEFAULT
 62
     7
 10
102.2228708430213
 20
79.59659248674498
 30
0.0
  0
VERTEX
  5
71C
  8
DEFAULT
 62
     7
 10
102.4174894545697
 20
79.32900237834863
 30
0.0
  0
VERTEX
  5
71D
  8
DEFAULT
 62
     7
 10
102.6628315417817
 20
79.10696662376974
 30
0.0
  0
VERTEX
  5
71E
  8
DEFAULT
 62
     7
 10
102.9421514085011
 20
78.94279361437384
 30
0.0
  0
VERTEX
  5
71F
  8
DEFAULT
 62
     7
 10
103.2361092935311
 20
78.84100563294425
 30
0.0
  0
VERTEX
  5
720
  8
DEFAULT
 62
     7
 10
103.5265361193376
 20
78.79863404039338
 30
0.0
  0
VERTEX
  5
721
  8
DEFAULT
 62
     7
 10
103.819811944163
 20
78.8098092055009
 30
0.0
  0
VERTEX
  5
722
  8
DEFAULT
 62
     7
 10
104.1229491296033
 20
78.87970080917876
 30
0.0
  0
VERTEX
  5
723
  8
DEFAULT
 62
     7
 10
104.4181699441434
 20
79.01318055029871
 30
0.0
  0
VERTEX
  5
724
  8
DEFAULT
 62
     7
 10
104.685759493474
 20
79.20780754783317
 30
0.0
  0
VERTEX
  5
725
  8
DEFAULT
 62
     7
 10
104.9077874211325
 20
79.4531406899933
 30
0.0
  0
VERTEX
  5
726
  8
DEFAULT
 62
     7
 10
105.0719598714627
 20
79.73246894269887
 30
0.0
  0
VERTEX
  5
727
  8
DEFAULT
 62
     7
 10
105.1737735699164
 20
80.02642738679464
 30
0.0
  0
VERTEX
  5
728
  8
DEFAULT
 62
     7
 10
105.2161194454432
 20
80.31685365353542
 30
0.0
  0
VERTEX
  5
729
  8
DEFAULT
 62
     7
 10
105.2049442803356
 20
80.61012109237464
 30
0.0
  0
VERTEX
  5
72A
  8
DEFAULT
 62
     7
 10
105.1350700076958
 20
80.9132498918288
 30
0.0
  0
VERTEX
  5
72B
  8
DEFAULT
 62
     7
 10
105.0015818805897
 20
81.2084874783412
 30
0.0
  0
VERTEX
  5
72C
  8
DEFAULT
 62
     7
 10
104.8069548830552
 20
81.4760692007514
 30
0.0
  0
VERTEX
  5
72D
  8
DEFAULT
 62
     7
 10
104.5616301268812
 20
81.69811390038218
 30
0.0
  0
VERTEX
  5
72E
  8
DEFAULT
 62
     7
 10
104.2823102601618
 20
81.86229473669844
 30
0.0
  0
VERTEX
  5
72F
  8
DEFAULT
 62
     7
 10
103.988351816066
 20
81.96407433214192
 30
0.0
  0
VERTEX
  5
730
  8
DEFAULT
 62
     7
 10
103.6979423212975
 20
82.00643753870668
 30
0.0
  0
VERTEX
  5
731
  8
DEFAULT
 62
     7
 10
103.4046413385138
 20
81.99526237359915
 30
0.0
  0
VERTEX
  5
732
  8
DEFAULT
 62
     7
 10
103.1015041530735
 20
81.92537076992129
 30
0.0
  0
VERTEX
  5
733
  8
DEFAULT
 62
     7
 10
102.8062917245195
 20
81.79189102880134
 30
0.0
  0
VERTEX
  5
734
  8
DEFAULT
 62
     7
 10
102.5386848441509
 20
81.59725564528075
 30
0.0
  0
VERTEX
  5
735
  8
DEFAULT
 62
     7
 10
102.3166485305062
 20
81.35193088910675
 30
0.0
  0
SEQEND
  5
736
  8
DEFAULT
 62
     7
  0
POLYLINE
  5
737
  8
DEFAULT
 62
     7
 66
     1
 10
0.0
 20
0.0
 30
0.0
 70
     1
  0
VERTEX
  5
738
  8
DEFAULT
 62
     7
 10
50.06069204573005
 20
111.9724842793893
 30
0.0
  0
VERTEX
  5
739
  8
DEFAULT
 62
     7
 10
50.35073032084619
 20
111.8281368593197
 30
0.0
  0
VERTEX
  5
73A
  8
DEFAULT
 62
     7
 10
50.65105261027784
 20
111.7470443735102
 30
0.0
  0
VERTEX
  5
73B
  8
DEFAULT
 62
     7
 10
50.94372240783938
 20
111.7249752533631
 30
0.0
  0
VERTEX
  5
73C
  8
DEFAULT
 62
     7
 10
51.235526771633
 20
111.7565389869986
 30
0.0
  0
VERTEX
  5
73D
  8
DEFAULT
 62
     7
 10
51.53304255104216
 20
111.8473390903441
 30
0.0
  0
VERTEX
  5
73E
  8
DEFAULT
 62
     7
 10
51.81827341984686
 20
112.0010363258752
 30
0.0
  0
VERTEX
  5
73F
  8
DEFAULT
 62
     7
 10
52.07169847954993
 20
112.213799416065
 30
0.0
  0
VERTEX
  5
740
  8
DEFAULT
 62
     7
 10
52.27612757673072
 20
112.4739679267425
 30
0.0
  0
VERTEX
  5
741
  8
DEFAULT
 62
     7
 10
52.42045319323642
 20
112.764061549367
 30
0.0
  0
VERTEX
  5
742
  8
DEFAULT
 62
     7
 10
52.50154567904591
 20
113.0643665077607
 30
0.0
  0
VERTEX
  5
743
  8
DEFAULT
 62
     7
 10
52.52364051621709
 20
113.3570452503741
 30
0.0
  0
VERTEX
  5
744
  8
DEFAULT
 62
     7
 10
52.49206392406951
 20
113.6488199836834
 30
0.0
  0
VERTEX
  5
745
  8
DEFAULT
 62
     7
 10
52.40126382072401
 20
113.9463525350648
 30
0.0
  0
VERTEX
  5
746
  8
DEFAULT
 62
     7
 10
52.24755819920686
 20
114.2315834038695
 30
0.0
  0
VERTEX
  5
747
  8
DEFAULT
 62
     7
 10
52.03479902247722
 20
114.4849872190744
 30
0.0
  0
VERTEX
  5
748
  8
DEFAULT
 62
     7
 10
51.77460926730157
 20
114.6894157571895
 30
0.0
  0
VERTEX
  5
749
  8
DEFAULT
 62
     7
 10
51.48454136170113
 20
114.8337547912729
 30
0.0
  0
VERTEX
  5
74A
  8
DEFAULT
 62
     7
 10
51.18423640330747
 20
114.9148472770825
 30
0.0
  0
VERTEX
  5
74B
  8
DEFAULT
 62
     7
 10
50.89157051920611
 20
114.9369163972295
 30
0.0
  0
VERTEX
  5
74C
  8
DEFAULT
 62
     7
 10
50.5997745413986
 20
114.9053610495801
 30
0.0
  0
VERTEX
  5
74D
  8
DEFAULT
 62
     7
 10
50.30224646254313
 20
114.8145525602485
 30
0.0
  0
VERTEX
  5
74E
  8
DEFAULT
 62
     7
 10
50.01702342065882
 20
114.6608553247175
 30
0.0
  0
VERTEX
  5
74F
  8
DEFAULT
 62
     7
 10
49.76361177853354
 20
114.4480832894758
 30
0.0
  0
VERTEX
  5
750
  8
DEFAULT
 62
     7
 10
49.55919553986482
 20
114.187915337864
 30
0.0
  0
VERTEX
  5
751
  8
DEFAULT
 62
     7
 10
49.41484364726926
 20
113.8978384872117
 30
0.0
  0
VERTEX
  5
752
  8
DEFAULT
 62
     7
 10
49.33375954744589
 20
113.5975245837662
 30
0.0
  0
VERTEX
  5
753
  8
DEFAULT
 62
     7
 10
49.31170384487663
 20
113.3048631721908
 30
0.0
  0
VERTEX
  5
754
  8
DEFAULT
 62
     7
 10
49.34324186148805
 20
113.0130806119611
 30
0.0
  0
VERTEX
  5
755
  8
DEFAULT
 62
     7
 10
49.43404196483354
 20
112.7155564465658
 30
0.0
  0
VERTEX
  5
756
  8
DEFAULT
 62
     7
 10
49.58775205887662
 20
112.4302993016712
 30
0.0
  0
VERTEX
  5
757
  8
DEFAULT
 62
     7
 10
49.80050229055441
 20
112.1769128175043
 30
0.0
  0
SEQEND
  5
758
  8
DEFAULT
 62
     7
  0
POLYLINE
  5
759
  8
DEFAULT
 62
     7
 66
     1
 10
0.0
 20
0.0
 30
0.0
 70
     1
  0
VERTEX
  5
75A
  8
DEFAULT
 62
     7
 10
16.53656755236216
 20
16.28753171779586
 30
0.0
  0
VERTEX
  5
75B
  8
DEFAULT
 62
     7
 10
16.47912746087974
 20
16.14034256656203
 30
0.0
  0
VERTEX
  5
75C
  8
DEFAULT
 62
     7
 10
16.45148277809237
 20
15.98476854733667
 30
0.0
  0
VERTEX
  5
75D
  8
DEFAULT
 62
     7
 10
16.45475610800905
 20
15.82678383663382
 30
0.0
  0
VERTEX
  5
75E
  8
DEFAULT
 62
     7
 10
16.48876351800082
 20
15.67249119608805
 30
0.0
  0
VERTEX
  5
75F
  8
DEFAULT
 62
     7
 10
16.55221803873066
 20
15.52778206048367
 30
0.0
  0
VERTEX
  5
760
  8
DEFAULT
 62
     7
 10
16.642698356472
 20
15.39824373284154
 30
0.0
  0
VERTEX
  5
761
  8
DEFAULT
 62
     7
 10
16.75669465649948
 20
15.28883289002612
 30
0.0
  0
VERTEX
  5
762
  8
DEFAULT
 62
     7
 10
16.88986579333008
 20
15.20377774624063
 30
0.0
  0
VERTEX
  5
763
  8
DEFAULT
 62
     7
 10
17.03705438549818
 20
15.14632982783783
 30
0.0
  0
VERTEX
  5
764
  8
DEFAULT
 62
     7
 10
17.1926278456578
 20
15.11870694861438
 30
0.0
  0
VERTEX
  5
765
  8
DEFAULT
 62
     7
 10
17.35059857971711
 20
15.12195064804676
 30
0.0
  0
VERTEX
  5
766
  8
DEFAULT
 62
     7
 10
17.50489848811752
 20
15.15597427094503
 30
0.0
  0
VERTEX
  5
767
  8
DEFAULT
 62
     7
 10
17.64961489157654
 20
15.21944220925267
 30
0.0
  0
VERTEX
  5
768
  8
DEFAULT
 62
     7
 10
17.77915377828441
 20
15.30992252699401
 30
0.0
  0
VERTEX
  5
769
  8
DEFAULT
 62
     7
 10
17.88854896725906
 20
15.42391155916685
 30
0.0
  0
VERTEX
  5
76A
  8
DEFAULT
 62
     7
 10
17.97361976488531
 20
15.55709108198359
 30
0.0
  0
VERTEX
  5
76B
  8
DEFAULT
 62
     7
 10
18.03106041543348
 20
15.70427911508594
 30
0.0
  0
VERTEX
  5
76C
  8
DEFAULT
 62
     7
 10
18.05868888531434
 20
15.85984474832517
 30
0.0
  0
VERTEX
  5
76D
  8
DEFAULT
 62
     7
 10
18.05543120923842
 20
16.01782275023912
 30
0.0
  0
VERTEX
  5
76E
  8
DEFAULT
 62
     7
 10
18.02140031848551
 20
16.17212265863953
 30
0.0
  0
VERTEX
  5
76F
  8
DEFAULT
 62
     7
 10
17.95794579775567
 20
16.31683123517817
 30
0.0
  0
VERTEX
  5
770
  8
DEFAULT
 62
     7
 10
17.86746659814582
 20
16.44637179908326
 30
0.0
  0
VERTEX
  5
771
  8
DEFAULT
 62
     7
 10
17.75346247119796
 20
16.55576586992643
 30
0.0
  0
VERTEX
  5
772
  8
DEFAULT
 62
     7
 10
17.62030642914237
 20
16.64082939969805
 30
0.0
  0
VERTEX
  5
773
  8
DEFAULT
 62
     7
 10
17.47311112818537
 20
16.69828514502123
 30
0.0
  0
VERTEX
  5
774
  8
DEFAULT
 62
     7
 10
17.31753599082853
 20
16.72589796106134
 30
0.0
  0
VERTEX
  5
775
  8
DEFAULT
 62
     7
 10
17.15957364275534
 20
16.72265537976044
 30
0.0
  0
VERTEX
  5
776
  8
DEFAULT
 62
     7
 10
17.00526590743456
 20
16.68863287499365
 30
0.0
  0
VERTEX
  5
777
  8
DEFAULT
 62
     7
 10
16.86057410286816
 20
16.62517108640916
 30
0.0
  0
VERTEX
  5
778
  8
DEFAULT
 62
     7
 10
16.73101844418805
 20
16.53469915465395
 30
0.0
  0
VERTEX
  5
779
  8
DEFAULT
 62
     7
 10
16.62161486922727
 20
16.42069446864035
 30
0.0
  0
SEQEND
  5
77A
  8
DEFAULT
 62
     7
  0
POLYLINE
  5
77B
  8
DEFAULT
 62
     7
 66
     1
 10
0.0
 20
0.0
 30
0.0
 70
     1
  0
VERTEX
  5
77C
  8
DEFAULT
 62
     7
 10
104.7238743594688
 20
82.24808587856431
 30
0.0
  0
VERTEX
  5
77D
  8
DEFAULT
 62
     7
 10
104.8724108591398
 20
82.19422324876197
 30
0.0
  0
VERTEX
  5
77E
  8
DEFAULT
 62
     7
 10
105.0286155045216
 20
82.1703712679652
 30
0.0
  0
VERTEX
  5
77F
  8
DEFAULT
 62
     7
 10
105.1864671575779
 20
82.17744344959557
 30
0.0
  0
VERTEX
  5
780
  8
DEFAULT
 62
     7
 10
105.3398993959475
 20
82.21517423742598
 30
0.0
  0
VERTEX
  5
781
  8
DEFAULT
 62
     7
 10
105.4830358796209
 20
82.28212291904039
 30
0.0
  0
VERTEX
  5
782
  8
DEFAULT
 62
     7
 10
105.6103474484145
 20
82.37569598846392
 30
0.0
  0
VERTEX
  5
783
  8
DEFAULT
 62
     7
 10
105.7169551356019
 20
82.49231877934511
 30
0.0
  0
VERTEX
  5
784
  8
DEFAULT
 62
     7
 10
105.7987727296782
 20
82.62750423004246
 30
0.0
  0
VERTEX
  5
785
  8
DEFAULT
 62
     7
 10
105.8526437454666
 20
82.77604017064766
 30
0.0
  0
VERTEX
  5
786
  8
DEFAULT
 62
     7
 10
105.8765041122496
 20
82.93223643004333
 30
0.0
  0
VERTEX
  5
787
  8
DEFAULT
 62
     7
 10
105.8694151586469
 20
83.0900796971136
 30
0.0
  0
VERTEX
  5
788
  8
DEFAULT
 62
     7
 10
105.8316927568026
 20
83.24352926652112
 30
0.0
  0
VERTEX
  5
789
  8
DEFAULT
 62
     7
 10
105.7647524611743
 20
83.38664786009083
 30
0.0
  0
VERTEX
  5
78A
  8
DEFAULT
 62
     7
 10
105.6711793917508
 20
83.51397675992241
 30
0.0
  0
VERTEX
  5
78B
  8
DEFAULT
 62
     7
 10
105.5545314429112
 20
83.62058444710978
 30
0.0
  0
VERTEX
  5
78C
  8
DEFAULT
 62
     7
 10
105.4193627641861
 20
83.70239365519993
 30
0.0
  0
VERTEX
  5
78D
  8
DEFAULT
 62
     7
 10
105.270809492543
 20
83.7562646709884
 30
0.0
  0
VERTEX
  5
78E
  8
DEFAULT
 62
     7
 10
105.1146216191334
 20
83.78012503777131
 30
0.0
  0
VERTEX
  5
78F
  8
DEFAULT
 62
     7
 10
104.9567705251428
 20
83.77304447015479
 30
0.0
  0
VERTEX
  5
790
  8
DEFAULT
 62
     7
 10
104.8033377277075
 20
83.7353136823244
 30
0.0
  0
VERTEX
  5
791
  8
DEFAULT
 62
     7
 10
104.6602101890859
 20
83.66835605565812
 30
0.0
  0
VERTEX
  5
792
  8
DEFAULT
 62
     7
 10
104.5328986202923
 20
83.57478354530036
 30
0.0
  0
VERTEX
  5
793
  8
DEFAULT
 62
     7
 10
104.4262825471188
 20
83.45816075441914
 30
0.0
  0
VERTEX
  5
794
  8
DEFAULT
 62
     7
 10
104.3444649530426
 20
83.32298368970793
 30
0.0
  0
VERTEX
  5
795
  8
DEFAULT
 62
     7
 10
104.2905933781883
 20
83.17444774910273
 30
0.0
  0
VERTEX
  5
796
  8
DEFAULT
 62
     7
 10
104.2667335704712
 20
83.01824254465518
 30
0.0
  0
VERTEX
  5
797
  8
DEFAULT
 62
     7
 10
104.2738225240738
 20
82.86039983665067
 30
0.0
  0
VERTEX
  5
798
  8
DEFAULT
 62
     7
 10
104.3115533119042
 20
82.70695865322928
 30
0.0
  0
VERTEX
  5
799
  8
DEFAULT
 62
     7
 10
104.3785019935186
 20
82.5638311146077
 30
0.0
  0
VERTEX
  5
79A
  8
DEFAULT
 62
     7
 10
104.4720834489282
 20
82.43651115982797
 30
0.0
  0
VERTEX
  5
79B
  8
DEFAULT
 62
     7
 10
104.5887062398095
 20
82.32990347264058
 30
0.0
  0
SEQEND
  5
79C
  8
DEFAULT
 62
     7
  0
POLYLINE
  5
79D
  8
DEFAULT
 62
     7
 66
     1
 10
0.0
 20
0.0
 30
0.0
 70
     1
  0
VERTEX
  5
79E
  8
DEFAULT
 62
     7
 10
97.26642599086411
 20
99.76333490982063
 30
0.0
  0
VERTEX
  5
79F
  8
DEFAULT
 62
     7
 10
97.54576262955581
 20
99.59915351443861
 30
0.0
  0
VERTEX
  5
7A0
  8
DEFAULT
 62
     7
 10
97.8397121285997
 20
99.49735714702287
 30
0.0
  0
VERTEX
  5
7A1
  8
DEFAULT
 62
     7
 10
98.1301389544062
 20
99.45500232644426
 30
0.0
  0
VERTEX
  5
7A2
  8
DEFAULT
 62
     7
 10
98.4234231652177
 20
99.46617749155179
 30
0.0
  0
VERTEX
  5
7A3
  8
DEFAULT
 62
     7
 10
98.72652624764773
 20
99.53606965429537
 30
0.0
  0
VERTEX
  5
7A4
  8
DEFAULT
 62
     7
 10
99.02176383416013
 20
99.66954883634958
 30
0.0
  0
VERTEX
  5
7A5
  8
DEFAULT
 62
     7
 10
99.28937127359443
 20
99.86417583388406
 30
0.0
  0
VERTEX
  5
7A6
  8
DEFAULT
 62
     7
 10
99.51140702817335
 20
100.1094922040719
 30
0.0
  0
VERTEX
  5
7A7
  8
DEFAULT
 62
     7
 10
99.67557165158313
 20
100.3888372287497
 30
0.0
  0
VERTEX
  5
7A8
  8
DEFAULT
 62
     7
 10
99.77735907394697
 20
100.6827872868594
 30
0.0
  0
VERTEX
  5
7A9
  8
DEFAULT
 62
     7
 10
99.81974799753584
 20
100.973205167614
 30
0.0
  0
VERTEX
  5
7AA
  8
DEFAULT
 62
     7
 10
99.80854767446993
 20
101.2664893784255
 30
0.0
  0
VERTEX
  5
7AB
  8
DEFAULT
 62
     7
 10
99.73866445677818
 20
101.5696097918936
 30
0.0
  0
VERTEX
  5
7AC
  8
DEFAULT
 62
     7
 10
99.60516794368601
 20
101.8648473784059
 30
0.0
  0
VERTEX
  5
7AD
  8
DEFAULT
 62
     7
 10
99.41054933213766
 20
102.1324291008162
 30
0.0
  0
VERTEX
  5
7AE
  8
DEFAULT
 62
     7
 10
99.1652156309118
 20
102.3544821864331
 30
0.0
  0
VERTEX
  5
7AF
  8
DEFAULT
 62
     7
 10
98.88587899222011
 20
102.5186546367632
 30
0.0
  0
VERTEX
  5
7B0
  8
DEFAULT
 62
     7
 10
98.59193787916233
 20
102.6204426181928
 30
0.0
  0
VERTEX
  5
7B1
  8
DEFAULT
 62
     7
 10
98.3015199984077
 20
102.6628142107437
 30
0.0
  0
VERTEX
  5
7B2
  8
DEFAULT
 62
     7
 10
98.0082184565582
 20
102.6516222736639
 30
0.0
  0
VERTEX
  5
7B3
  8
DEFAULT
 62
     7
 10
97.70509860215591
 20
102.5817390559722
 30
0.0
  0
VERTEX
  5
7B4
  8
DEFAULT
 62
     7
 10
97.40987778761577
 20
102.4482509288661
 30
0.0
  0
VERTEX
  5
7B5
  8
DEFAULT
 62
     7
 10
97.14227034818146
 20
102.2536239313316
 30
0.0
  0
VERTEX
  5
7B6
  8
DEFAULT
 62
     7
 10
96.92026031062666
 20
102.0082991751576
 30
0.0
  0
VERTEX
  5
7B7
  8
DEFAULT
 62
     7
 10
96.75607891524461
 20
101.7289625364659
 30
0.0
  0
VERTEX
  5
7B8
  8
DEFAULT
 62
     7
 10
96.65429093381503
 20
101.435013037422
 30
0.0
  0
VERTEX
  5
7B9
  8
DEFAULT
 62
     7
 10
96.61192772725029
 20
101.1445862116155
 30
0.0
  0
VERTEX
  5
7BA
  8
DEFAULT
 62
     7
 10
96.6231028923578
 20
100.8513103867901
 30
0.0
  0
VERTEX
  5
7BB
  8
DEFAULT
 62
     7
 10
96.69297772406344
 20
100.548198918374
 30
0.0
  0
VERTEX
  5
7BC
  8
DEFAULT
 62
     7
 10
96.82648262314176
 20
100.2529523868097
 30
0.0
  0
VERTEX
  5
7BD
  8
DEFAULT
 62
     7
 10
97.02109228963823
 20
99.98537122346525
 30
0.0
  0
SEQEND
  5
7BE
  8
DEFAULT
 62
     7
  0
POLYLINE
  5
7BF
  8
DEFAULT
 62
     7
 66
     1
 10
0.0
 20
0.0
 30
0.0
 70
     1
  0
VERTEX
  5
7C0
  8
DEFAULT
 62
     7
 10
29.36325479030609
 20
113.7282660208841
 30
0.0
  0
VERTEX
  5
7C1
  8
DEFAULT
 62
     7
 10
29.32862234481529
 20
113.3069876220086
 30
0.0
  0
VERTEX
  5
7C2
  8
DEFAULT
 62
     7
 10
29.37689096280784
 20
112.8870739026082
 30
0.0
  0
VERTEX
  5
7C3
  8
DEFAULT
 62
     7
 10
29.50614137159307
 20
112.4846483186687
 30
0.0
  0
VERTEX
  5
7C4
  8
DEFAULT
 62
     7
 10
29.71141074458339
 20
112.1151763057982
 30
0.0
  0
VERTEX
  5
7C5
  8
DEFAULT
 62
     7
 10
29.98482072734908
 20
111.7928452753196
 30
0.0
  0
VERTEX
  5
7C6
  8
DEFAULT
 62
     7
 10
30.31585920675209
 20
111.5300497147227
 30
0.0
  0
VERTEX
  5
7C7
  8
DEFAULT
 62
     7
 10
30.69183594952534
 20
111.3368980916801
 30
0.0
  0
VERTEX
  5
7C8
  8
DEFAULT
 62
     7
 10
31.09825605818809
 20
111.2208041769904
 30
0.0
  0
VERTEX
  5
7C9
  8
DEFAULT
 62
     7
 10
31.51952383481449
 20
111.1862041573126
 30
0.0
  0
VERTEX
  5
7CA
  8
DEFAULT
 62
     7
 10
31.9394241366371
 20
111.2344705390422
 30
0.0
  0
VERTEX
  5
7CB
  8
DEFAULT
 62
     7
 10
32.34184133459046
 20
111.3637103255783
 30
0.0
  0
VERTEX
  5
7CC
  8
DEFAULT
 62
     7
 10
32.71133011943321
 20
111.568991998015
 30
0.0
  0
VERTEX
  5
7CD
  8
DEFAULT
 62
     7
 10
33.03365500018867
 20
111.8424086895696
 30
0.0
  0
VERTEX
  5
7CE
  8
DEFAULT
 62
     7
 10
33.2964505607856
 20
112.1734667362735
 30
0.0
  0
VERTEX
  5
7CF
  8
DEFAULT
 62
     7
 10
33.48959771130223
 20
112.5494216754829
 30
0.0
  0
VERTEX
  5
7D0
  8
DEFAULT
 62
     7
 10
33.60572125647625
 20
112.9558395478826
 30
0.0
  0
VERTEX
  5
7D1
  8
DEFAULT
 62
     7
 10
33.64030897670773
 20
113.377092229734
 30
0.0
  0
VERTEX
  5
7D2
  8
DEFAULT
 62
     7
 10
33.59205545349019
 20
113.7969975631483
 30
0.0
  0
VERTEX
  5
7D3
  8
DEFAULT
 62
     7
 10
33.46278380020678
 20
114.1994147611017
 30
0.0
  0
VERTEX
  5
7D4
  8
DEFAULT
 62
     7
 10
33.25749765524422
 20
114.5688862149064
 30
0.0
  0
VERTEX
  5
7D5
  8
DEFAULT
 62
     7
 10
32.98409605846465
 20
114.891217245385
 30
0.0
  0
VERTEX
  5
7D6
  8
DEFAULT
 62
     7
 10
32.65306372878479
 20
115.1539960340097
 30
0.0
  0
VERTEX
  5
7D7
  8
DEFAULT
 62
     7
 10
32.27709593106341
 20
115.3471728150106
 30
0.0
  0
VERTEX
  5
7D8
  8
DEFAULT
 62
     7
 10
31.87070098035904
 20
115.4632751156865
 30
0.0
  0
VERTEX
  5
7D9
  8
DEFAULT
 62
     7
 10
31.44943320373264
 20
115.49787569443
 30
0.0
  0
VERTEX
  5
7DA
  8
DEFAULT
 62
     7
 10
31.02954576042208
 20
115.4496093127005
 30
0.0
  0
VERTEX
  5
7DB
  8
DEFAULT
 62
     7
 10
30.62710060918165
 20
115.3203611401782
 30
0.0
  0
VERTEX
  5
7DC
  8
DEFAULT
 62
     7
 10
30.25763306883708
 20
115.1150789086758
 30
0.0
  0
VERTEX
  5
7DD
  8
DEFAULT
 62
     7
 10
29.93529980209549
 20
114.841662776187
 30
0.0
  0
VERTEX
  5
7DE
  8
DEFAULT
 62
     7
 10
29.67249585551243
 20
114.5106131154691
 30
0.0
  0
VERTEX
  5
7DF
  8
DEFAULT
 62
     7
 10
29.47933584648375
 20
114.1346665622459
 30
0.0
  0
SEQEND
  5
7E0
  8
DEFAULT
 62
     7
  0
POLYLINE
  5
7E1
  8
DEFAULT
 62
     7
 66
     1
 10
0.0
 20
0.0
 30
0.0
 70
     1
  0
VERTEX
  5
7E2
  8
DEFAULT
 62
     7
 10
28.65223665742045
 20
60.57878606909575
 30
0.0
  0
VERTEX
  5
7E3
  8
DEFAULT
 62
     7
 10
28.94229394077179
 20
60.43443026304001
 30
0.0
  0
VERTEX
  5
7E4
  8
DEFAULT
 62
     7
 10
29.2426223799266
 20
60.35334169069071
 30
0.0
  0
VERTEX
  5
7E5
  8
DEFAULT
 62
     7
 10
29.53527987804182
 20
60.33127704306959
 30
0.0
  0
VERTEX
  5
7E6
  8
DEFAULT
 62
     7
 10
29.82709486408456
 20
60.36284077670511
 30
0.0
  0
VERTEX
  5
7E7
  8
DEFAULT
 62
     7
 10
30.12460617096778
 20
60.45364535257654
 30
0.0
  0
VERTEX
  5
7E8
  8
DEFAULT
 62
     7
 10
30.40985045735026
 20
60.60734650156776
 30
0.0
  0
VERTEX
  5
7E9
  8
DEFAULT
 62
     7
 10
30.6632453275033
 20
60.82011853680946
 30
0.0
  0
VERTEX
  5
7EA
  8
DEFAULT
 62
     7
 10
30.86766100710629
 20
61.08029934693322
 30
0.0
  0
VERTEX
  5
7EB
  8
DEFAULT
 62
     7
 10
31.01201737222777
 20
61.37037619758553
 30
0.0
  0
VERTEX
  5
7EC
  8
DEFAULT
 62
     7
 10
31.09310314924836
 20
61.67069401449125
 30
0.0
  0
VERTEX
  5
7ED
  8
DEFAULT
 62
     7
 10
31.11517841911858
 20
61.96335989859261
 30
0.0
  0
VERTEX
  5
7EE
  8
DEFAULT
 62
     7
 10
31.08361300828583
 20
62.25515587640012
 30
0.0
  0
VERTEX
  5
7EF
  8
DEFAULT
 62
     7
 10
30.99279557390235
 20
62.55267556926947
 30
0.0
  0
VERTEX
  5
7F0
  8
DEFAULT
 62
     7
 10
30.83912405539543
 20
62.83791091060008
 30
0.0
  0
VERTEX
  5
7F1
  8
DEFAULT
 62
     7
 10
30.62635202015373
 20
63.09130578075313
 30
0.0
  0
VERTEX
  5
7F2
  8
DEFAULT
 62
     7
 10
30.36616673750402
 20
63.29573040540798
 30
0.0
  0
VERTEX
  5
7F3
  8
DEFAULT
 62
     7
 10
30.07607087861651
 20
63.4400739120174
 30
0.0
  0
VERTEX
  5
7F4
  8
DEFAULT
 62
     7
 10
29.77575753423672
 20
63.52116192530096
 30
0.0
  0
VERTEX
  5
7F5
  8
DEFAULT
 62
     7
 10
29.48309165013537
 20
63.54323104544802
 30
0.0
  0
VERTEX
  5
7F6
  8
DEFAULT
 62
     7
 10
29.19130014485379
 20
63.51167569779862
 30
0.0
  0
VERTEX
  5
7F7
  8
DEFAULT
 62
     7
 10
28.89378045198444
 20
63.42087112192719
 30
0.0
  0
VERTEX
  5
7F8
  8
DEFAULT
 62
     7
 10
28.60854455158808
 20
63.2671744454619
 30
0.0
  0
VERTEX
  5
7F9
  8
DEFAULT
 62
     7
 10
28.35513458666003
 20
63.0544063236804
 30
0.0
  0
VERTEX
  5
7FA
  8
DEFAULT
 62
     7
 10
28.15072729304316
 20
62.79422998608256
 30
0.0
  0
VERTEX
  5
7FB
  8
DEFAULT
 62
     7
 10
28.00636925072445
 20
62.50414866290431
 30
0.0
  0
VERTEX
  5
7FC
  8
DEFAULT
 62
     7
 10
27.92528291463811
 20
62.2038308459986
 30
0.0
  0
VERTEX
  5
7FD
  8
DEFAULT
 62
     7
 10
27.90321658981976
 20
61.91116496189725
 30
0.0
  0
VERTEX
  5
7FE
  8
DEFAULT
 62
     7
 10
27.93478200065252
 20
61.61936507062953
 30
0.0
  0
VERTEX
  5
7FF
  8
DEFAULT
 62
     7
 10
28.02557371801189
 20
61.32184537776019
 30
0.0
  0
VERTEX
  5
800
  8
DEFAULT
 62
     7
 10
28.1792854892522
 20
61.03660947736383
 30
0.0
  0
VERTEX
  5
801
  8
DEFAULT
 62
     7
 10
28.39205137477073
 20
60.7832106937506
 30
0.0
  0
SEQEND
  5
802
  8
DEFAULT
 62
     7
  0
POLYLINE
  5
803
  8
DEFAULT
 62
     7
 66
     1
 10
0.0
 20
0.0
 30
0.0
 70
     1
  0
VERTEX
  5
804
  8
DEFAULT
 62
     7
 10
35.67851339978751
 20
113.4102084889337
 30
0.0
  0
VERTEX
  5
805
  8
DEFAULT
 62
     7
 10
35.69657290043627
 20
113.253227301237
 30
0.0
  0
VERTEX
  5
806
  8
DEFAULT
 62
     7
 10
35.74489462967428
 20
113.1027804739272
 30
0.0
  0
VERTEX
  5
807
  8
DEFAULT
 62
     7
 10
35.82163422962019
 20
112.9646688731387
 30
0.0
  0
VERTEX
  5
808
  8
DEFAULT
 62
     7
 10
35.92381914772628
 20
112.8441734338659
 30
0.0
  0
VERTEX
  5
809
  8
DEFAULT
 62
     7
 10
36.04758176719263
 20
112.7459254567116
 30
0.0
  0
VERTEX
  5
80A
  8
DEFAULT
 62
     7
 10
36.18812698115406
 20
112.6736963991684
 30
0.0
  0
VERTEX
  5
80B
  8
DEFAULT
 62
     7
 10
36.34006875025668
 20
112.630309543231
 30
0.0
  0
VERTEX
  5
80C
  8
DEFAULT
 62
     7
 10
36.4975469473977
 20
112.6173856204839
 30
0.0
  0
VERTEX
  5
80D
  8
DEFAULT
 62
     7
 10
36.65451974910838
 20
112.6354194041086
 30
0.0
  0
VERTEX
  5
80E
  8
DEFAULT
 62
     7
 10
36.80495819043201
 20
112.6837366608207
 30
0.0
  0
VERTEX
  5
80F
  8
DEFAULT
 62
     7
 10
36.94306755495759
 20
112.7604790560953
 30
0.0
  0
VERTEX
  5
810
  8
DEFAULT
 62
     7
 10
37.06359262471469
 20
112.8626930456199
 30
0.0
  0
VERTEX
  5
811
  8
DEFAULT
 62
     7
 10
37.16183389308001
 20
112.9864478381659
 30
0.0
  0
VERTEX
  5
812
  8
DEFAULT
 62
     7
 10
37.23403108387595
 20
113.1269902567986
 30
0.0
  0
VERTEX
  5
813
  8
DEFAULT
 62
     7
 10
37.27743303458847
 20
113.278913017666
 30
0.0
  0
VERTEX
  5
814
  8
DEFAULT
 62
     7
 10
37.29036590238737
 20
113.4364063095821
 30
0.0
  0
VERTEX
  5
815
  8
DEFAULT
 62
     7
 10
37.27232764623678
 20
113.5933791112927
 30
0.0
  0
VERTEX
  5
816
  8
DEFAULT
 62
     7
 10
37.22401206672193
 20
113.7438259386025
 30
0.0
  0
VERTEX
  5
817
  8
DEFAULT
 62
     7
 10
37.14727638023621
 20
113.8819369803253
 30
0.0
  0
VERTEX
  5
818
  8
DEFAULT
 62
     7
 10
37.04506854043471
 20
114.00244136465
 30
0.0
  0
VERTEX
  5
819
  8
DEFAULT
 62
     7
 10
36.92128858993038
 20
114.1006803967523
 30
0.0
  0
VERTEX
  5
81A
  8
DEFAULT
 62
     7
 10
36.78074784849488
 20
114.1729010683094
 30
0.0
  0
VERTEX
  5
81B
  8
DEFAULT
 62
     7
 10
36.62882732389044
 20
114.2162968692988
 30
0.0
  0
VERTEX
  5
81C
  8
DEFAULT
 62
     7
 10
36.47135359927535
 20
114.229237564018
 30
0.0
  0
VERTEX
  5
81D
  8
DEFAULT
 62
     7
 10
36.31437632503874
 20
114.2111870084211
 30
0.0
  0
VERTEX
  5
81E
  8
DEFAULT
 62
     7
 10
36.16392949772899
 20
114.1628691926433
 30
0.0
  0
VERTEX
  5
81F
  8
DEFAULT
 62
     7
 10
36.02580559749413
 20
114.0861357424206
 30
0.0
  0
VERTEX
  5
820
  8
DEFAULT
 62
     7
 10
35.90530736289261
 20
113.983912807844
 30
0.0
  0
VERTEX
  5
821
  8
DEFAULT
 62
     7
 10
35.8070834255653
 20
113.86016696035
 30
0.0
  0
VERTEX
  5
822
  8
DEFAULT
 62
     7
 10
35.73486275400819
 20
113.7196072106792
 30
0.0
  0
VERTEX
  5
823
  8
DEFAULT
 62
     7
 10
35.69145465357253
 20
113.5676844498118
 30
0.0
  0
SEQEND
  5
824
  8
DEFAULT
 62
     7
  0
POLYLINE
  5
825
  8
DEFAULT
 62
     7
 66
     1
 10
0.0
 20
0.0
 30
0.0
 70
     1
  0
VERTEX
  5
826
  8
DEFAULT
 62
     7
 10
27.40263695177066
 20
66.44030915901119
 30
0.0
  0
VERTEX
  5
827
  8
DEFAULT
 62
     7
 10
27.55308377908041
 20
66.48861802973714
 30
0.0
  0
VERTEX
  5
828
  8
DEFAULT
 62
     7
 10
27.69120767931526
 20
66.56535986594602
 30
0.0
  0
VERTEX
  5
829
  8
DEFAULT
 62
     7
 10
27.81170591391679
 20
66.6675744145364
 30
0.0
  0
VERTEX
  5
82A
  8
DEFAULT
 62
     7
 10
27.90996004079415
 20
66.79133312054255
 30
0.0
  0
VERTEX
  5
82B
  8
DEFAULT
 62
     7
 10
27.98216561757622
 20
66.93186715318917
 30
0.0
  0
VERTEX
  5
82C
  8
DEFAULT
 62
     7
 10
28.02556756828873
 20
67.08379830004269
 30
0.0
  0
VERTEX
  5
82D
  8
DEFAULT
 62
     7
 10
28.03850602674505
 20
67.2412748199865
 30
0.0
  0
VERTEX
  5
82E
  8
DEFAULT
 62
     7
 10
28.02044708516202
 20
67.3982560076833
 30
0.0
  0
VERTEX
  5
82F
  8
DEFAULT
 62
     7
 10
27.97212256059531
 20
67.54868997648099
 30
0.0
  0
VERTEX
  5
830
  8
DEFAULT
 62
     7
 10
27.8953790471892
 20
67.68680549072972
 30
0.0
  0
VERTEX
  5
831
  8
DEFAULT
 62
     7
 10
27.79317064832196
 20
67.80731434758033
 30
0.0
  0
VERTEX
  5
832
  8
DEFAULT
 62
     7
 10
27.66943150961677
 20
67.90555337968267
 30
0.0
  0
VERTEX
  5
833
  8
DEFAULT
 62
     7
 10
27.52888238219514
 20
67.97776566525366
 30
0.0
  0
VERTEX
  5
834
  8
DEFAULT
 62
     7
 10
27.37694676281569
 20
68.02116929316338
 30
0.0
  0
VERTEX
  5
835
  8
DEFAULT
 62
     7
 10
27.21947080193763
 20
68.03410216096229
 30
0.0
  0
VERTEX
  5
836
  8
DEFAULT
 62
     7
 10
27.06249352770102
 20
68.01606390481169
 30
0.0
  0
VERTEX
  5
837
  8
DEFAULT
 62
     7
 10
26.91204893665423
 20
67.96774217557369
 30
0.0
  0
VERTEX
  5
838
  8
DEFAULT
 62
     7
 10
26.77393957212865
 20
67.89099978029905
 30
0.0
  0
VERTEX
  5
839
  8
DEFAULT
 62
     7
 10
26.65344189659288
 20
67.78878579077441
 30
0.0
  0
VERTEX
  5
83A
  8
DEFAULT
 62
     7
 10
26.55521125047665
 20
67.66503994328032
 30
0.0
  0
VERTEX
  5
83B
  8
DEFAULT
 62
     7
 10
26.48298219293344
 20
67.52449696558183
 30
0.0
  0
VERTEX
  5
83C
  8
DEFAULT
 62
     7
 10
26.43958024222093
 20
67.37257029125425
 30
0.0
  0
VERTEX
  5
83D
  8
DEFAULT
 62
     7
 10
26.42664737442203
 20
67.21508985785026
 30
0.0
  0
VERTEX
  5
83E
  8
DEFAULT
 62
     7
 10
26.44470072534764
 20
67.0581170561396
 30
0.0
  0
VERTEX
  5
83F
  8
DEFAULT
 62
     7
 10
26.49300735981062
 20
66.90767022882983
 30
0.0
  0
VERTEX
  5
840
  8
DEFAULT
 62
     7
 10
26.56975366854543
 20
66.76955415551537
 30
0.0
  0
VERTEX
  5
841
  8
DEFAULT
 62
     7
 10
26.67194473637468
 20
66.64905424371662
 30
0.0
  0
VERTEX
  5
842
  8
DEFAULT
 62
     7
 10
26.79569282013174
 20
66.55081129815407
 30
0.0
  0
VERTEX
  5
843
  8
DEFAULT
 62
     7
 10
26.93624418381634
 20
66.4785990125831
 30
0.0
  0
VERTEX
  5
844
  8
DEFAULT
 62
     7
 10
27.08818595291896
 20
66.43519482560764
 30
0.0
  0
VERTEX
  5
845
  8
DEFAULT
 62
     7
 10
27.24565967753404
 20
66.42227090286059
 30
0.0
  0
SEQEND
  5
846
  8
DEFAULT
 62
     7
  0
POLYLINE
  5
847
  8
DEFAULT
 62
     7
 66
     1
 10
0.0
 20
0.0
 30
0.0
 70
     1
  0
VERTEX
  5
848
  8
DEFAULT
 62
     7
 10
36.06454549898799
 20
112.1137691373268
 30
0.0
  0
VERTEX
  5
849
  8
DEFAULT
 62
     7
 10
35.7744580260866
 20
112.2581417153548
 30
0.0
  0
VERTEX
  5
84A
  8
DEFAULT
 62
     7
 10
35.47412902786604
 20
112.339217429192
 30
0.0
  0
VERTEX
  5
84B
  8
DEFAULT
 62
     7
 10
35.18148494732861
 20
112.3612776042872
 30
0.0
  0
VERTEX
  5
84C
  8
DEFAULT
 62
     7
 10
34.88968673325813
 20
112.3297228157035
 30
0.0
  0
VERTEX
  5
84D
  8
DEFAULT
 62
     7
 10
34.59213517364152
 20
112.2389221532923
 30
0.0
  0
VERTEX
  5
84E
  8
DEFAULT
 62
     7
 10
34.30691436802017
 20
112.0852170908409
 30
0.0
  0
VERTEX
  5
84F
  8
DEFAULT
 62
     7
 10
34.05352788385326
 20
111.8724450555992
 30
0.0
  0
VERTEX
  5
850
  8
DEFAULT
 62
     7
 10
33.8490909597521
 20
111.6122681589356
 30
0.0
  0
VERTEX
  5
851
  8
DEFAULT
 62
     7
 10
33.70474745314267
 20
111.3221745363111
 30
0.0
  0
VERTEX
  5
852
  8
DEFAULT
 62
     7
 10
33.62365273107021
 20
111.0218522468794
 30
0.0
  0
VERTEX
  5
853
  8
DEFAULT
 62
     7
 10
33.60158640625186
 20
110.729173504266
 30
0.0
  0
VERTEX
  5
854
  8
DEFAULT
 62
     7
 10
33.63314566736145
 20
110.4373819989844
 30
0.0
  0
VERTEX
  5
855
  8
DEFAULT
 62
     7
 10
33.72394353444398
 20
110.1398583926549
 30
0.0
  0
VERTEX
  5
856
  8
DEFAULT
 62
     7
 10
33.8776513922241
 20
109.8546353507706
 30
0.0
  0
VERTEX
  5
857
  8
DEFAULT
 62
     7
 10
34.09042119120283
 20
109.6012231495796
 30
0.0
  0
VERTEX
  5
858
  8
DEFAULT
 62
     7
 10
34.35060647385254
 20
109.3967946114645
 30
0.0
  0
VERTEX
  5
859
  8
DEFAULT
 62
     7
 10
34.64067885197891
 20
109.2524471913949
 30
0.0
  0
VERTEX
  5
85A
  8
DEFAULT
 62
     7
 10
34.94100729113372
 20
109.1713630915715
 30
0.0
  0
VERTEX
  5
85B
  8
DEFAULT
 62
     7
 10
35.23367541149803
 20
109.1493029164764
 30
0.0
  0
VERTEX
  5
85C
  8
DEFAULT
 62
     7
 10
35.52546468051666
 20
109.1808493190739
 30
0.0
  0
VERTEX
  5
85D
  8
DEFAULT
 62
     7
 10
35.82298660964896
 20
109.2716667534574
 30
0.0
  0
VERTEX
  5
85E
  8
DEFAULT
 62
     7
 10
36.10823704575461
 20
109.4253550439365
 30
0.0
  0
VERTEX
  5
85F
  8
DEFAULT
 62
     7
 10
36.36162967964468
 20
109.6381354651644
 30
0.0
  0
VERTEX
  5
860
  8
DEFAULT
 62
     7
 10
36.56606101308843
 20
109.8983207478141
 30
0.0
  0
VERTEX
  5
861
  8
DEFAULT
 62
     7
 10
36.71041066942102
 20
110.1884059844525
 30
0.0
  0
VERTEX
  5
862
  8
DEFAULT
 62
     7
 10
36.79150539149347
 20
110.488719887898
 30
0.0
  0
VERTEX
  5
863
  8
DEFAULT
 62
     7
 10
36.8135633303257
 20
110.7813896854596
 30
0.0
  0
VERTEX
  5
864
  8
DEFAULT
 62
     7
 10
36.78201245520222
 20
111.0731811907412
 30
0.0
  0
VERTEX
  5
865
  8
DEFAULT
 62
     7
 10
36.6911888710956
 20
111.3707137421225
 30
0.0
  0
VERTEX
  5
866
  8
DEFAULT
 62
     7
 10
36.53750896660254
 20
111.655945169993
 30
0.0
  0
VERTEX
  5
867
  8
DEFAULT
 62
     7
 10
36.3247134505997
 20
111.9093484261321
 30
0.0
  0
SEQEND
  5
868
  8
DEFAULT
 62
     7
  0
POLYLINE
  5
869
  8
DEFAULT
 62
     7
 66
     1
 10
0.0
 20
0.0
 30
0.0
 70
     1
  0
VERTEX
  5
86A
  8
DEFAULT
 62
     7
 10
73.12787368560696
 20
61.26747958879047
 30
0.0
  0
VERTEX
  5
86B
  8
DEFAULT
 62
     7
 10
73.41793320522126
 20
61.12313216872085
 30
0.0
  0
VERTEX
  5
86C
  8
DEFAULT
 62
     7
 10
73.71826388063903
 20
61.04203968291136
 30
0.0
  0
VERTEX
  5
86D
  8
DEFAULT
 62
     7
 10
74.01091299276814
 20
61.01997894875042
 30
0.0
  0
VERTEX
  5
86E
  8
DEFAULT
 62
     7
 10
74.3027296560081
 20
61.05153429639983
 30
0.0
  0
VERTEX
  5
86F
  8
DEFAULT
 62
     7
 10
74.60024096289132
 20
61.14233887227125
 30
0.0
  0
VERTEX
  5
870
  8
DEFAULT
 62
     7
 10
74.88548077674787
 20
61.2960444937884
 30
0.0
  0
VERTEX
  5
871
  8
DEFAULT
 62
     7
 10
75.13886726091476
 20
61.50881205650416
 30
0.0
  0
VERTEX
  5
872
  8
DEFAULT
 62
     7
 10
75.3432874130437
 20
61.76899286662794
 30
0.0
  0
VERTEX
  5
873
  8
DEFAULT
 62
     7
 10
75.48766893612355
 20
62.05907418980618
 30
0.0
  0
VERTEX
  5
874
  8
DEFAULT
 62
     7
 10
75.56875303594693
 20
62.35939200671191
 30
0.0
  0
VERTEX
  5
875
  8
DEFAULT
 62
     7
 10
75.59082215609396
 20
62.65205341828731
 30
0.0
  0
VERTEX
  5
876
  8
DEFAULT
 62
     7
 10
75.55925003647233
 20
62.94384939609483
 30
0.0
  0
VERTEX
  5
877
  8
DEFAULT
 62
     7
 10
75.46844098807497
 20
63.24137300242437
 30
0.0
  0
VERTEX
  5
878
  8
DEFAULT
 62
     7
 10
75.31475269759581
 20
63.52660890282073
 30
0.0
  0
VERTEX
  5
879
  8
DEFAULT
 62
     7
 10
75.10198066235411
 20
63.7800082454997
 30
0.0
  0
VERTEX
  5
87A
  8
DEFAULT
 62
     7
 10
74.84180376569053
 20
63.98443287015456
 30
0.0
  0
VERTEX
  5
87B
  8
DEFAULT
 62
     7
 10
74.55171014306596
 20
64.12878420368436
 30
0.0
  0
VERTEX
  5
87C
  8
DEFAULT
 62
     7
 10
74.25139623962045
 20
64.20987277603366
 30
0.0
  0
VERTEX
  5
87D
  8
DEFAULT
 62
     7
 10
73.95872196953299
 20
64.23193686458904
 30
0.0
  0
VERTEX
  5
87E
  8
DEFAULT
 62
     7
 10
73.66694779528937
 20
64.20037816254519
 30
0.0
  0
VERTEX
  5
87F
  8
DEFAULT
 62
     7
 10
73.3694236298941
 20
64.10957302760802
 30
0.0
  0
VERTEX
  5
880
  8
DEFAULT
 62
     7
 10
73.08418828856347
 20
63.95586740609087
 30
0.0
  0
VERTEX
  5
881
  8
DEFAULT
 62
     7
 10
72.83077161484653
 20
63.74309592991492
 30
0.0
  0
VERTEX
  5
882
  8
DEFAULT
 62
     7
 10
72.62635593524354
 20
63.48292350577727
 30
0.0
  0
VERTEX
  5
883
  8
DEFAULT
 62
     7
 10
72.48200404264799
 20
63.19285056858516
 30
0.0
  0
VERTEX
  5
884
  8
DEFAULT
 62
     7
 10
72.40090708431256
 20
62.89252883821926
 30
0.0
  0
VERTEX
  5
885
  8
DEFAULT
 62
     7
 10
72.37884299575718
 20
62.59985848159197
 30
0.0
  0
VERTEX
  5
886
  8
DEFAULT
 62
     7
 10
72.41041902883902
 20
62.30806697631038
 30
0.0
  0
VERTEX
  5
887
  8
DEFAULT
 62
     7
 10
72.50121074619838
 20
62.0105428109151
 30
0.0
  0
VERTEX
  5
888
  8
DEFAULT
 62
     7
 10
72.65490798172941
 20
61.72531194211042
 30
0.0
  0
VERTEX
  5
889
  8
DEFAULT
 62
     7
 10
72.86768001697111
 20
61.47190421344532
 30
0.0
  0
SEQEND
  5
88A
  8
DEFAULT
 62
     7
  0
POLYLINE
  5
88B
  8
DEFAULT
 62
     7
 66
     1
 10
0.0
 20
0.0
 30
0.0
 70
     1
  0
VERTEX
  5
88C
  8
DEFAULT
 62
     7
 10
50.43457396916977
 20
88.95626874970786
 30
0.0
  0
VERTEX
  5
88D
  8
DEFAULT
 62
     7
 10
50.72463348878408
 20
88.81191294365213
 30
0.0
  0
VERTEX
  5
88E
  8
DEFAULT
 62
     7
 10
51.02496025074168
 20
88.73082045784263
 30
0.0
  0
VERTEX
  5
88F
  8
DEFAULT
 62
     7
 10
51.31760880380503
 20
88.70875189676131
 30
0.0
  0
VERTEX
  5
890
  8
DEFAULT
 62
     7
 10
51.60940478161255
 20
88.7403150713311
 30
0.0
  0
VERTEX
  5
891
  8
DEFAULT
 62
     7
 10
51.90693733299396
 20
88.83111573374234
 30
0.0
  0
VERTEX
  5
892
  8
DEFAULT
 62
     7
 10
52.19216876086438
 20
88.98481241020761
 30
0.0
  0
VERTEX
  5
893
  8
DEFAULT
 62
     7
 10
52.44558878897579
 20
89.19758444544931
 30
0.0
  0
VERTEX
  5
894
  8
DEFAULT
 62
     7
 10
52.64999664165839
 20
89.45776972809901
 30
0.0
  0
VERTEX
  5
895
  8
DEFAULT
 62
     7
 10
52.79434853425394
 20
89.74784657875132
 30
0.0
  0
VERTEX
  5
896
  8
DEFAULT
 62
     7
 10
52.87544940604956
 20
90.04816886818298
 30
0.0
  0
VERTEX
  5
897
  8
DEFAULT
 62
     7
 10
52.89753529816886
 20
90.34082189377227
 30
0.0
  0
VERTEX
  5
898
  8
DEFAULT
 62
     7
 10
52.86595032003515
 20
90.63262178503999
 30
0.0
  0
VERTEX
  5
899
  8
DEFAULT
 62
     7
 10
52.77515021668966
 20
90.93014539136952
 30
0.0
  0
VERTEX
  5
89A
  8
DEFAULT
 62
     7
 10
52.62143173666045
 20
91.21538576429181
 30
0.0
  0
VERTEX
  5
89B
  8
DEFAULT
 62
     7
 10
52.40868094591694
 20
91.46878063444484
 30
0.0
  0
VERTEX
  5
89C
  8
DEFAULT
 62
     7
 10
52.14850013579316
 20
91.67320917255988
 30
0.0
  0
VERTEX
  5
89D
  8
DEFAULT
 62
     7
 10
51.85842328514087
 20
91.81756497861562
 30
0.0
  0
VERTEX
  5
89E
  8
DEFAULT
 62
     7
 10
51.55812224020739
 20
91.89864907843899
 30
0.0
  0
VERTEX
  5
89F
  8
DEFAULT
 62
     7
 10
51.26545691517178
 20
91.92070981259995
 30
0.0
  0
VERTEX
  5
8A0
  8
DEFAULT
 62
     7
 10
50.97366093736427
 20
91.88915446495054
 30
0.0
  0
VERTEX
  5
8A1
  8
DEFAULT
 62
     7
 10
50.67612391345692
 20
91.79835436160504
 30
0.0
  0
VERTEX
  5
8A2
  8
DEFAULT
 62
     7
 10
50.39089248558649
 20
91.64465712607402
 30
0.0
  0
VERTEX
  5
8A3
  8
DEFAULT
 62
     7
 10
50.13748084346121
 20
91.43188509083231
 30
0.0
  0
VERTEX
  5
8A4
  8
DEFAULT
 62
     7
 10
49.93306069133229
 20
91.17169980818261
 30
0.0
  0
VERTEX
  5
8A5
  8
DEFAULT
 62
     7
 10
49.78872165724881
 20
90.88163190258217
 30
0.0
  0
VERTEX
  5
8A6
  8
DEFAULT
 62
     7
 10
49.70762078545317
 20
90.58130961315051
 30
0.0
  0
VERTEX
  5
8A7
  8
DEFAULT
 62
     7
 10
49.68556005129225
 20
90.28863981558897
 30
0.0
  0
VERTEX
  5
8A8
  8
DEFAULT
 62
     7
 10
49.71711539894166
 20
89.99684831030739
 30
0.0
  0
VERTEX
  5
8A9
  8
DEFAULT
 62
     7
 10
49.80791997481307
 20
89.69932414491213
 30
0.0
  0
VERTEX
  5
8AA
  8
DEFAULT
 62
     7
 10
49.96161273781817
 20
89.41409271704167
 30
0.0
  0
VERTEX
  5
8AB
  8
DEFAULT
 62
     7
 10
50.17438421399412
 20
89.16068051585066
 30
0.0
  0
SEQEND
  5
8AC
  8
DEFAULT
 62
     7
  0
POLYLINE
  5
8AD
  8
DEFAULT
 62
     7
 66
     1
 10
0.0
 20
0.0
 30
0.0
 70
     1
  0
VERTEX
  5
8AE
  8
DEFAULT
 62
     7
 10
6.145484879486835
 20
89.9078478395839
 30
0.0
  0
VERTEX
  5
8AF
  8
DEFAULT
 62
     7
 10
6.12743879641586
 20
90.0648290272807
 30
0.0
  0
VERTEX
  5
8B0
  8
DEFAULT
 62
     7
 10
6.079108681191734
 20
90.21526746860431
 30
0.0
  0
VERTEX
  5
8B1
  8
DEFAULT
 62
     7
 10
6.002378026297683
 20
90.35338745537898
 30
0.0
  0
VERTEX
  5
8B2
  8
DEFAULT
 62
     7
 10
5.90017801341657
 20
90.4738828946518
 30
0.0
  0
VERTEX
  5
8B3
  8
DEFAULT
 62
     7
 10
5.776414834884492
 20
90.57212192675414
 30
0.0
  0
VERTEX
  5
8B4
  8
DEFAULT
 62
     7
 10
5.635865148397118
 20
90.64433421232513
 30
0.0
  0
VERTEX
  5
8B5
  8
DEFAULT
 62
     7
 10
5.483945741924166
 20
90.68772945424872
 30
0.0
  0
VERTEX
  5
8B6
  8
DEFAULT
 62
     7
 10
5.326464749454434
 20
90.70067070803375
 30
0.0
  0
VERTEX
  5
8B7
  8
DEFAULT
 62
     7
 10
5.169493624940983
 20
90.68263692440908
 30
0.0
  0
VERTEX
  5
8B8
  8
DEFAULT
 62
     7
 10
5.019040088842333
 20
90.63431910863127
 30
0.0
  0
VERTEX
  5
8B9
  8
DEFAULT
 62
     7
 10
4.880916188607474
 20
90.5575772724224
 30
0.0
  0
VERTEX
  5
8BA
  8
DEFAULT
 62
     7
 10
4.760434166912459
 20
90.455362723832
 30
0.0
  0
VERTEX
  5
8BB
  8
DEFAULT
 62
     7
 10
4.662178921903609
 20
90.33160010436565
 30
0.0
  0
VERTEX
  5
8BC
  8
DEFAULT
 62
     7
 10
4.589965518201153
 20
90.1910655126533
 30
0.0
  0
VERTEX
  5
8BD
  8
DEFAULT
 62
     7
 10
4.54656468562013
 20
90.03914331085166
 30
0.0
  0
VERTEX
  5
8BE
  8
DEFAULT
 62
     7
 10
4.533631258755485
 20
89.88165840492172
 30
0.0
  0
VERTEX
  5
8BF
  8
DEFAULT
 62
     7
 10
4.551676782760717
 20
89.72468560321106
 30
0.0
  0
VERTEX
  5
8C0
  8
DEFAULT
 62
     7
 10
4.599991803209822
 20
89.57424716188744
 30
0.0
  0
VERTEX
  5
8C1
  8
DEFAULT
 62
     7
 10
4.676737552878896
 20
89.43612717511274
 30
0.0
  0
VERTEX
  5
8C2
  8
DEFAULT
 62
     7
 10
4.778944833614648
 20
89.31564012182608
 30
0.0
  0
VERTEX
  5
8C3
  8
DEFAULT
 62
     7
 10
4.902700744292085
 20
89.21738431775147
 30
0.0
  0
VERTEX
  5
8C4
  8
DEFAULT
 62
     7
 10
5.043250989845203
 20
89.14518041816663
 30
0.0
  0
VERTEX
  5
8C5
  8
DEFAULT
 62
     7
 10
5.195169837252412
 20
89.10176784520503
 30
0.0
  0
VERTEX
  5
8C6
  8
DEFAULT
 62
     7
 10
5.352659215708266
 20
89.08884392245798
 30
0.0
  0
VERTEX
  5
8C7
  8
DEFAULT
 62
     7
 10
5.509621954235595
 20
89.10687770608266
 30
0.0
  0
VERTEX
  5
8C8
  8
DEFAULT
 62
     7
 10
5.660083317254625
 20
89.15519552186046
 30
0.0
  0
VERTEX
  5
8C9
  8
DEFAULT
 62
     7
 10
5.798214485344126
 20
89.23193735806935
 30
0.0
  0
VERTEX
  5
8CA
  8
DEFAULT
 62
     7
 10
5.918697066104882
 20
89.33415190665974
 30
0.0
  0
VERTEX
  5
8CB
  8
DEFAULT
 62
     7
 10
6.01693721633871
 20
89.45789775415382
 30
0.0
  0
VERTEX
  5
8CC
  8
DEFAULT
 62
     7
 10
6.089157887895807
 20
89.59844017278658
 30
0.0
  0
VERTEX
  5
8CD
  8
DEFAULT
 62
     7
 10
6.132558720476828
 20
89.75036293365396
 30
0.0
  0
SEQEND
  5
8CE
  8
DEFAULT
 62
     7
  0
POLYLINE
  5
8CF
  8
DEFAULT
 62
     7
 66
     1
 10
0.0
 20
0.0
 30
0.0
 70
     1
  0
VERTEX
  5
8D0
  8
DEFAULT
 62
     7
 10
26.53804122342267
 20
90.98399124919962
 30
0.0
  0
VERTEX
  5
8D1
  8
DEFAULT
 62
     7
 10
26.39992515010819
 20
90.90724941299074
 30
0.0
  0
VERTEX
  5
8D2
  8
DEFAULT
 62
     7
 10
26.27945095533355
 20
90.80504325038646
 30
0.0
  0
VERTEX
  5
8D3
  8
DEFAULT
 62
     7
 10
26.18120297817934
 20
90.68127224493401
 30
0.0
  0
VERTEX
  5
8D4
  8
DEFAULT
 62
     7
 10
26.10897392063612
 20
90.54073765322165
 30
0.0
  0
VERTEX
  5
8D5
  8
DEFAULT
 62
     7
 10
26.06557420618659
 20
90.38880650636811
 30
0.0
  0
VERTEX
  5
8D6
  8
DEFAULT
 62
     7
 10
26.05263966119046
 20
90.23133054549005
 30
0.0
  0
VERTEX
  5
8D7
  8
DEFAULT
 62
     7
 10
26.07067791734104
 20
90.07435774377939
 30
0.0
  0
VERTEX
  5
8D8
  8
DEFAULT
 62
     7
 10
26.1189934968559
 20
89.92391091646964
 30
0.0
  0
VERTEX
  5
8D9
  8
DEFAULT
 62
     7
 10
26.19573086053884
 20
89.78579092969498
 30
0.0
  0
VERTEX
  5
8DA
  8
DEFAULT
 62
     7
 10
26.29795603137833
 20
89.66530387640829
 30
0.0
  0
VERTEX
  5
8DB
  8
DEFAULT
 62
     7
 10
26.42171026485854
 20
89.56704751326795
 30
0.0
  0
VERTEX
  5
8DC
  8
DEFAULT
 62
     7
 10
26.56225324255701
 20
89.49484417274884
 30
0.0
  0
VERTEX
  5
8DD
  8
DEFAULT
 62
     7
 10
26.71417991688461
 20
89.45143998577338
 30
0.0
  0
VERTEX
  5
8DE
  8
DEFAULT
 62
     7
 10
26.87166258655156
 20
89.43850767704022
 30
0.0
  0
VERTEX
  5
8DF
  8
DEFAULT
 62
     7
 10
27.0286309157363
 20
89.45654146066487
 30
0.0
  0
VERTEX
  5
8E0
  8
DEFAULT
 62
     7
 10
27.17909283782108
 20
89.50485871737693
 30
0.0
  0
VERTEX
  5
8E1
  8
DEFAULT
 62
     7
 10
27.31721729712168
 20
89.58160111265157
 30
0.0
  0
VERTEX
  5
8E2
  8
DEFAULT
 62
     7
 10
27.43770826386856
 20
89.68382404722809
 30
0.0
  0
VERTEX
  5
8E3
  8
DEFAULT
 62
     7
 10
27.53594561877368
 20
89.80756989472216
 30
0.0
  0
VERTEX
  5
8E4
  8
DEFAULT
 62
     7
 10
27.60816629033078
 20
89.94810392736878
 30
0.0
  0
VERTEX
  5
8E5
  8
DEFAULT
 62
     7
 10
27.65156153225438
 20
90.1000350742223
 30
0.0
  0
VERTEX
  5
8E6
  8
DEFAULT
 62
     7
 10
27.66448545500143
 20
90.25751942108649
 30
0.0
  0
VERTEX
  5
8E7
  8
DEFAULT
 62
     7
 10
27.64644775791657
 20
90.41450116784902
 30
0.0
  0
VERTEX
  5
8E8
  8
DEFAULT
 62
     7
 10
27.59812546961283
 20
90.56493066412078
 30
0.0
  0
VERTEX
  5
8E9
  8
DEFAULT
 62
     7
 10
27.52140264163916
 20
90.70305065089546
 30
0.0
  0
VERTEX
  5
8EA
  8
DEFAULT
 62
     7
 10
27.41917970706264
 20
90.82355503522014
 30
0.0
  0
VERTEX
  5
8EB
  8
DEFAULT
 62
     7
 10
27.29543218237133
 20
90.92180245330862
 30
0.0
  0
VERTEX
  5
8EC
  8
DEFAULT
 62
     7
 10
27.15488081868673
 20
90.99400635289345
 30
0.0
  0
VERTEX
  5
8ED
  8
DEFAULT
 62
     7
 10
27.00295582155636
 20
91.03741892585504
 30
0.0
  0
VERTEX
  5
8EE
  8
DEFAULT
 62
     7
 10
26.84545861618012
 20
91.0503428486021
 30
0.0
  0
VERTEX
  5
8EF
  8
DEFAULT
 62
     7
 10
26.68849643671853
 20
91.03230011992557
 30
0.0
  0
SEQEND
  5
8F0
  8
DEFAULT
 62
     7
  0
POLYLINE
  5
8F1
  8
DEFAULT
 62
     7
 66
     1
 10
0.0
 20
0.0
 30
0.0
 70
     1
  0
VERTEX
  5
8F2
  8
DEFAULT
 62
     7
 10
29.7372926930877
 20
90.71189730718949
 30
0.0
  0
VERTEX
  5
8F3
  8
DEFAULT
 62
     7
 10
29.7026965868701
 20
90.29063568028626
 30
0.0
  0
VERTEX
  5
8F4
  8
DEFAULT
 62
     7
 10
29.75095849607376
 20
89.8707309059377
 30
0.0
  0
VERTEX
  5
8F5
  8
DEFAULT
 62
     7
 10
29.88020890485899
 20
89.46830532199823
 30
0.0
  0
VERTEX
  5
8F6
  8
DEFAULT
 62
     7
 10
30.08547995504653
 20
89.09883330912771
 30
0.0
  0
VERTEX
  5
8F7
  8
DEFAULT
 62
     7
 10
30.35887931556313
 20
88.77649389266297
 30
0.0
  0
VERTEX
  5
8F8
  8
DEFAULT
 62
     7
 10
30.68993568506987
 20
88.51370671805218
 30
0.0
  0
VERTEX
  5
8F9
  8
DEFAULT
 62
     7
 10
31.06588838801624
 20
88.32054670902349
 30
0.0
  0
VERTEX
  5
8FA
  8
DEFAULT
 62
     7
 10
31.472291165641
 20
88.20444440834765
 30
0.0
  0
VERTEX
  5
8FB
  8
DEFAULT
 62
     7
 10
31.89356117853036
 20
88.16985221559024
 30
0.0
  0
VERTEX
  5
8FC
  8
DEFAULT
 62
     7
 10
32.31345533062981
 20
88.21810182534759
 30
0.0
  0
VERTEX
  5
8FD
  8
DEFAULT
 62
     7
 10
32.71589209588413
 20
88.34735838385599
 30
0.0
  0
VERTEX
  5
8FE
  8
DEFAULT
 62
     7
 10
33.08537193567501
 20
88.55263167030647
 30
0.0
  0
VERTEX
  5
8FF
  8
DEFAULT
 62
     7
 10
33.40769290297028
 20
88.82603997587493
 30
0.0
  0
VERTEX
  5
900
  8
DEFAULT
 62
     7
 10
33.67048846356721
 20
89.15708069154093
 30
0.0
  0
VERTEX
  5
901
  8
DEFAULT
 62
     7
 10
33.86364847259591
 20
89.53303563075025
 30
0.0
  0
VERTEX
  5
902
  8
DEFAULT
 62
     7
 10
33.97975077327174
 20
89.93944511716391
 30
0.0
  0
VERTEX
  5
903
  8
DEFAULT
 62
     7
 10
34.01433849350322
 20
90.36068941302916
 30
0.0
  0
VERTEX
  5
904
  8
DEFAULT
 62
     7
 10
33.96608441121994
 20
90.78060313242956
 30
0.0
  0
VERTEX
  5
905
  8
DEFAULT
 62
     7
 10
33.83681946672542
 20
91.18302871636905
 30
0.0
  0
VERTEX
  5
906
  8
DEFAULT
 62
     7
 10
33.63156518851014
 20
91.5524917841877
 30
0.0
  0
VERTEX
  5
907
  8
DEFAULT
 62
     7
 10
33.35816582799354
 20
91.87484014570428
 30
0.0
  0
VERTEX
  5
908
  8
DEFAULT
 62
     7
 10
33.02711616727569
 20
92.13762732031512
 30
0.0
  0
VERTEX
  5
909
  8
DEFAULT
 62
     7
 10
32.65115675554043
 20
92.33078732934378
 30
0.0
  0
VERTEX
  5
90A
  8
DEFAULT
 62
     7
 10
32.2447517416527
 20
92.44690640199187
 30
0.0
  0
VERTEX
  5
90B
  8
DEFAULT
 62
     7
 10
31.8235135955106
 20
92.48149020876318
 30
0.0
  0
VERTEX
  5
90C
  8
DEFAULT
 62
     7
 10
31.40359596265001
 20
92.43323221301968
 30
0.0
  0
VERTEX
  5
90D
  8
DEFAULT
 62
     7
 10
31.00115137047532
 20
92.30397509544555
 30
0.0
  0
VERTEX
  5
90E
  8
DEFAULT
 62
     7
 10
30.63168606639371
 20
92.09871019498118
 30
0.0
  0
VERTEX
  5
90F
  8
DEFAULT
 62
     7
 10
30.30934385460026
 20
91.82529406249235
 30
0.0
  0
VERTEX
  5
910
  8
DEFAULT
 62
     7
 10
30.04655667998945
 20
91.4942527877606
 30
0.0
  0
VERTEX
  5
911
  8
DEFAULT
 62
     7
 10
29.85339723002651
 20
91.11830679360314
 30
0.0
  0
SEQEND
  5
912
  8
DEFAULT
 62
     7
  0
POLYLINE
  5
913
  8
DEFAULT
 62
     7
 66
     1
 10
0.0
 20
0.0
 30
0.0
 70
     1
  0
VERTEX
  5
914
  8
DEFAULT
 62
     7
 10
36.05255745229228
 20
90.39380567222892
 30
0.0
  0
VERTEX
  5
915
  8
DEFAULT
 62
     7
 10
36.07061080321789
 20
90.23684125650438
 30
0.0
  0
VERTEX
  5
916
  8
DEFAULT
 62
     7
 10
36.11892582366699
 20
90.08639442919463
 30
0.0
  0
VERTEX
  5
917
  8
DEFAULT
 62
     7
 10
36.19565703762679
 20
89.94827444241994
 30
0.0
  0
VERTEX
  5
918
  8
DEFAULT
 62
     7
 10
36.29787158621718
 20
89.82777900314713
 30
0.0
  0
VERTEX
  5
919
  8
DEFAULT
 62
     7
 10
36.42162805596035
 20
89.72953102599293
 30
0.0
  0
VERTEX
  5
91A
  8
DEFAULT
 62
     7
 10
36.56216041140974
 20
89.65731929948768
 30
0.0
  0
VERTEX
  5
91B
  8
DEFAULT
 62
     7
 10
36.71409770798642
 20
89.61391511251222
 30
0.0
  0
VERTEX
  5
91C
  8
DEFAULT
 62
     7
 10
36.87157590512745
 20
89.60099118976518
 30
0.0
  0
VERTEX
  5
91D
  8
DEFAULT
 62
     7
 10
37.02854870683812
 20
89.61902497338986
 30
0.0
  0
VERTEX
  5
91E
  8
DEFAULT
 62
     7
 10
37.17898714816175
 20
89.66734278916768
 30
0.0
  0
VERTEX
  5
91F
  8
DEFAULT
 62
     7
 10
37.31710322147624
 20
89.74408462537654
 30
0.0
  0
VERTEX
  5
920
  8
DEFAULT
 62
     7
 10
37.43760928299813
 20
89.84629917396693
 30
0.0
  0
VERTEX
  5
921
  8
DEFAULT
 62
     7
 10
37.53583992911435
 20
89.97004502146102
 30
0.0
  0
VERTEX
  5
922
  8
DEFAULT
 62
     7
 10
37.60805221468532
 20
90.11059582607989
 30
0.0
  0
VERTEX
  5
923
  8
DEFAULT
 62
     7
 10
37.6514536063321
 20
90.2625269729334
 30
0.0
  0
VERTEX
  5
924
  8
DEFAULT
 62
     7
 10
37.664386474131
 20
90.4200034928772
 30
0.0
  0
VERTEX
  5
925
  8
DEFAULT
 62
     7
 10
37.64634374545447
 20
90.576984680574
 30
0.0
  0
VERTEX
  5
926
  8
DEFAULT
 62
     7
 10
37.59803487472853
 20
90.72742312189763
 30
0.0
  0
VERTEX
  5
927
  8
DEFAULT
 62
     7
 10
37.52129751104557
 20
90.86553416362044
 30
0.0
  0
VERTEX
  5
928
  8
DEFAULT
 62
     7
 10
37.41909749816445
 20
90.9860385479451
 30
0.0
  0
VERTEX
  5
929
  8
DEFAULT
 62
     7
 10
37.29531978392311
 20
91.08428652509932
 30
0.0
  0
VERTEX
  5
92A
  8
DEFAULT
 62
     7
 10
37.15478351501353
 20
91.15649825160455
 30
0.0
  0
VERTEX
  5
92B
  8
DEFAULT
 62
     7
 10
37.00285013189703
 20
91.19989405259392
 30
0.0
  0
VERTEX
  5
92C
  8
DEFAULT
 62
     7
 10
36.84537417101897
 20
91.21282636132707
 30
0.0
  0
VERTEX
  5
92D
  8
DEFAULT
 62
     7
 10
36.68840584183423
 20
91.19478419171628
 30
0.0
  0
VERTEX
  5
92E
  8
DEFAULT
 62
     7
 10
36.53795230573559
 20
91.14646637593846
 30
0.0
  0
VERTEX
  5
92F
  8
DEFAULT
 62
     7
 10
36.39984294121
 20
91.06973292571571
 30
0.0
  0
VERTEX
  5
930
  8
DEFAULT
 62
     7
 10
36.2793368796881
 20
90.96751837712533
 30
0.0
  0
VERTEX
  5
931
  8
DEFAULT
 62
     7
 10
36.18111238329503
 20
90.8437641436451
 30
0.0
  0
VERTEX
  5
932
  8
DEFAULT
 62
     7
 10
36.10889171173794
 20
90.7032301109985
 30
0.0
  0
VERTEX
  5
933
  8
DEFAULT
 62
     7
 10
36.0654919972884
 20
90.55129001909312
 30
0.0
  0
SEQEND
  5
934
  8
DEFAULT
 62
     7
  0
POLYLINE
  5
935
  8
DEFAULT
 62
     7
 66
     1
 10
0.0
 20
0.0
 30
0.0
 70
     1
  0
VERTEX
  5
936
  8
DEFAULT
 62
     7
 10
6.385297247449308
 20
106.2615270977866
 30
0.0
  0
VERTEX
  5
937
  8
DEFAULT
 62
     7
 10
6.67536235772104
 20
106.1171886227688
 30
0.0
  0
VERTEX
  5
938
  8
DEFAULT
 62
     7
 10
6.975682969955463
 20
106.0361045229454
 30
0.0
  0
VERTEX
  5
939
  8
DEFAULT
 62
     7
 10
7.268350531254036
 20
106.0140437887845
 30
0.0
  0
VERTEX
  5
93A
  8
DEFAULT
 62
     7
 10
7.56014818625878
 20
106.0455991364339
 30
0.0
  0
VERTEX
  5
93B
  8
DEFAULT
 62
     7
 10
7.857653343418844
 20
106.1363908537933
 30
0.0
  0
VERTEX
  5
93C
  8
DEFAULT
 62
     7
 10
8.142881416894824
 20
106.2900880893243
 30
0.0
  0
VERTEX
  5
93D
  8
DEFAULT
 62
     7
 10
8.39630591753216
 20
106.5028511795141
 30
0.0
  0
VERTEX
  5
93E
  8
DEFAULT
 62
     7
 10
8.600737250975913
 20
106.7630196901916
 30
0.0
  0
VERTEX
  5
93F
  8
DEFAULT
 62
     7
 10
8.745071812533475
 20
107.05310492683
 30
0.0
  0
VERTEX
  5
940
  8
DEFAULT
 62
     7
 10
8.826158707685558
 20
107.3534182712098
 30
0.0
  0
VERTEX
  5
941
  8
DEFAULT
 62
     7
 10
8.848247954199307
 20
107.6460886278371
 30
0.0
  0
VERTEX
  5
942
  8
DEFAULT
 62
     7
 10
8.816674157380435
 20
107.9378801331187
 30
0.0
  0
VERTEX
  5
943
  8
DEFAULT
 62
     7
 10
8.72588132188958
 20
108.2353953534621
 30
0.0
  0
VERTEX
  5
944
  8
DEFAULT
 62
     7
 10
8.572161723728888
 20
108.5206267813325
 30
0.0
  0
VERTEX
  5
945
  8
DEFAULT
 62
     7
 10
8.359382979698294
 20
108.7740300374717
 30
0.0
  0
VERTEX
  5
946
  8
DEFAULT
 62
     7
 10
8.099205523968967
 20
108.9784591346525
 30
0.0
  0
VERTEX
  5
947
  8
DEFAULT
 62
     7
 10
7.809139854631495
 20
109.1228065547221
 30
0.0
  0
VERTEX
  5
948
  8
DEFAULT
 62
     7
 10
7.50883489623783
 20
109.2038906545455
 30
0.0
  0
VERTEX
  5
949
  8
DEFAULT
 62
     7
 10
7.216166775873517
 20
109.2259592156268
 30
0.0
  0
VERTEX
  5
94A
  8
DEFAULT
 62
     7
 10
6.924376947789152
 20
109.1944044270431
 30
0.0
  0
VERTEX
  5
94B
  8
DEFAULT
 62
     7
 10
6.626848868933685
 20
109.1036037646319
 30
0.0
  0
VERTEX
  5
94C
  8
DEFAULT
 62
     7
 10
6.341621354523447
 20
108.9498897571286
 30
0.0
  0
VERTEX
  5
94D
  8
DEFAULT
 62
     7
 10
6.088219216515771
 20
108.7371350529249
 30
0.0
  0
VERTEX
  5
94E
  8
DEFAULT
 62
     7
 10
5.883811363833163
 20
108.4769581562613
 30
0.0
  0
VERTEX
  5
94F
  8
DEFAULT
 62
     7
 10
5.739446612725561
 20
108.186881305609
 30
0.0
  0
VERTEX
  5
950
  8
DEFAULT
 62
     7
 10
5.658366426362376
 20
107.8865595752431
 30
0.0
  0
VERTEX
  5
951
  8
DEFAULT
 62
     7
 10
5.636307928464412
 20
107.5938892186158
 30
0.0
  0
VERTEX
  5
952
  8
DEFAULT
 62
     7
 10
5.667858803587881
 20
107.3021066583861
 30
0.0
  0
VERTEX
  5
953
  8
DEFAULT
 62
     7
 10
5.758644371224094
 20
107.004590878977
 30
0.0
  0
VERTEX
  5
954
  8
DEFAULT
 62
     7
 10
5.912371237239426
 20
106.7193510651204
 30
0.0
  0
VERTEX
  5
955
  8
DEFAULT
 62
     7
 10
6.125127059574617
 20
106.4659561949674
 30
0.0
  0
SEQEND
  5
956
  8
DEFAULT
 62
     7
  0
POLYLINE
  5
957
  8
DEFAULT
 62
     7
 66
     1
 10
0.0
 20
0.0
 30
0.0
 70
     1
  0
VERTEX
  5
958
  8
DEFAULT
 62
     7
 10
5.135714313771759
 20
112.1230076987056
 30
0.0
  0
VERTEX
  5
959
  8
DEFAULT
 62
     7
 10
5.286168408936152
 20
112.1713081834454
 30
0.0
  0
VERTEX
  5
95A
  8
DEFAULT
 62
     7
 10
5.42428448225063
 20
112.2480589647062
 30
0.0
  0
VERTEX
  5
95B
  8
DEFAULT
 62
     7
 10
5.544767063011386
 20
112.3502645682447
 30
0.0
  0
VERTEX
  5
95C
  8
DEFAULT
 62
     7
 10
5.643014481099853
 20
112.4740277467768
 30
0.0
  0
VERTEX
  5
95D
  8
DEFAULT
 62
     7
 10
5.715220057881929
 20
112.6145617794234
 30
0.0
  0
VERTEX
  5
95E
  8
DEFAULT
 62
     7
 10
5.758628717383332
 20
112.7664929262769
 30
0.0
  0
VERTEX
  5
95F
  8
DEFAULT
 62
     7
 10
5.771562144247978
 20
112.923968887155
 30
0.0
  0
VERTEX
  5
960
  8
DEFAULT
 62
     7
 10
5.753546809792788
 20
113.0809416888657
 30
0.0
  0
VERTEX
  5
961
  8
DEFAULT
 62
     7
 10
5.705224521489042
 20
113.2313801301893
 30
0.0
  0
VERTEX
  5
962
  8
DEFAULT
 62
     7
 10
5.62847877181997
 20
113.369482785926
 30
0.0
  0
VERTEX
  5
963
  8
DEFAULT
 62
     7
 10
5.526270932018476
 20
113.4900045012887
 30
0.0
  0
VERTEX
  5
964
  8
DEFAULT
 62
     7
 10
5.402507753486399
 20
113.5882351474049
 30
0.0
  0
VERTEX
  5
965
  8
DEFAULT
 62
     7
 10
5.261957507933281
 20
113.660438487924
 30
0.0
  0
VERTEX
  5
966
  8
DEFAULT
 62
     7
 10
5.110038660526072
 20
113.7038510608856
 30
0.0
  0
VERTEX
  5
967
  8
DEFAULT
 62
     7
 10
4.952564935910981
 20
113.7167833696188
 30
0.0
  0
VERTEX
  5
968
  8
DEFAULT
 62
     7
 10
4.795586543542888
 20
113.698741200008
 30
0.0
  0
VERTEX
  5
969
  8
DEFAULT
 62
     7
 10
4.645148102219261
 20
113.6504317702163
 30
0.0
  0
VERTEX
  5
96A
  8
DEFAULT
 62
     7
 10
4.507039855825164
 20
113.5736899340074
 30
0.0
  0
VERTEX
  5
96B
  8
DEFAULT
 62
     7
 10
4.386550007209769
 20
113.4714759444827
 30
0.0
  0
VERTEX
  5
96C
  8
DEFAULT
 62
     7
 10
4.288302030055559
 20
113.3477211519368
 30
0.0
  0
VERTEX
  5
96D
  8
DEFAULT
 62
     7
 10
4.216096453273483
 20
113.2071955052763
 30
0.0
  0
VERTEX
  5
96E
  8
DEFAULT
 62
     7
 10
4.172695620692462
 20
113.0552475864505
 30
0.0
  0
VERTEX
  5
96F
  8
DEFAULT
 62
     7
 10
4.159754925973176
 20
112.8977710665067
 30
0.0
  0
VERTEX
  5
970
  8
DEFAULT
 62
     7
 10
4.177792623058028
 20
112.7407982647961
 30
0.0
  0
VERTEX
  5
971
  8
DEFAULT
 62
     7
 10
4.226099816586751
 20
112.5903687685243
 30
0.0
  0
VERTEX
  5
972
  8
DEFAULT
 62
     7
 10
4.30282991241506
 20
112.4522487817496
 30
0.0
  0
VERTEX
  5
973
  8
DEFAULT
 62
     7
 10
4.405037752216555
 20
112.3317443974249
 30
0.0
  0
VERTEX
  5
974
  8
DEFAULT
 62
     7
 10
4.528816584589395
 20
112.2335137513087
 30
0.0
  0
VERTEX
  5
975
  8
DEFAULT
 62
     7
 10
4.669351176301748
 20
112.1612930797516
 30
0.0
  0
VERTEX
  5
976
  8
DEFAULT
 62
     7
 10
4.821262755854319
 20
112.1178894518419
 30
0.0
  0
VERTEX
  5
977
  8
DEFAULT
 62
     7
 10
4.978744307389792
 20
112.1049655290949
 30
0.0
  0
SEQEND
  5
978
  8
DEFAULT
 62
     7
  0
POLYLINE
  5
979
  8
DEFAULT
 62
     7
 66
     1
 10
0.0
 20
0.0
 30
0.0
 70
     1
  0
VERTEX
  5
97A
  8
DEFAULT
 62
     7
 10
73.83906680606971
 20
114.4168784760463
 30
0.0
  0
VERTEX
  5
97B
  8
DEFAULT
 62
     7
 10
73.80443659684185
 20
113.9956425661672
 30
0.0
  0
VERTEX
  5
97C
  8
DEFAULT
 62
     7
 10
73.85269459258531
 20
113.5757288467668
 30
0.0
  0
VERTEX
  5
97D
  8
DEFAULT
 62
     7
 10
73.98193829258165
 20
113.1733032628273
 30
0.0
  0
VERTEX
  5
97E
  8
DEFAULT
 62
     7
 10
74.18722443754422
 20
112.8038228639707
 30
0.0
  0
VERTEX
  5
97F
  8
DEFAULT
 62
     7
 10
74.46061093954876
 20
112.4815002194782
 30
0.0
  0
VERTEX
  5
980
  8
DEFAULT
 62
     7
 10
74.79166060026661
 20
112.2187046588812
 30
0.0
  0
VERTEX
  5
981
  8
DEFAULT
 62
     7
 10
75.16762392546207
 20
112.0255194918942
 30
0.0
  0
VERTEX
  5
982
  8
DEFAULT
 62
     7
 10
75.57402502588957
 20
111.9094082461665
 30
0.0
  0
VERTEX
  5
983
  8
DEFAULT
 62
     7
 10
75.99529503877895
 20
111.8748166124748
 30
0.0
  0
VERTEX
  5
984
  8
DEFAULT
 62
     7
 10
76.41518304115526
 20
111.9230746082183
 30
0.0
  0
VERTEX
  5
985
  8
DEFAULT
 62
     7
 10
76.81760862509473
 20
112.0523138356887
 30
0.0
  0
VERTEX
  5
986
  8
DEFAULT
 62
     7
 10
77.18709740993748
 20
112.257596067191
 30
0.0
  0
VERTEX
  5
987
  8
DEFAULT
 62
     7
 10
77.50941166844386
 20
112.5310038136938
 30
0.0
  0
VERTEX
  5
988
  8
DEFAULT
 62
     7
 10
77.77224133205102
 20
112.8620450884255
 30
0.0
  0
VERTEX
  5
989
  8
DEFAULT
 62
     7
 10
77.9653756240556
 20
113.2379916416487
 30
0.0
  0
VERTEX
  5
98A
  8
DEFAULT
 62
     7
 10
78.08149525576941
 20
113.6444095140485
 30
0.0
  0
VERTEX
  5
98B
  8
DEFAULT
 62
     7
 10
78.11606955842312
 20
114.0656538099137
 30
0.0
  0
VERTEX
  5
98C
  8
DEFAULT
 62
     7
 10
78.06783727970374
 20
114.4855669702484
 30
0.0
  0
VERTEX
  5
98D
  8
DEFAULT
 62
     7
 10
77.9385639492231
 20
114.8879925541879
 30
0.0
  0
VERTEX
  5
98E
  8
DEFAULT
 62
     7
 10
77.73329904875872
 20
115.2574561810723
 30
0.0
  0
VERTEX
  5
98F
  8
DEFAULT
 62
     7
 10
77.45989074319026
 20
115.579795597537
 30
0.0
  0
VERTEX
  5
990
  8
DEFAULT
 62
     7
 10
77.12885841351041
 20
115.8425743861617
 30
0.0
  0
VERTEX
  5
991
  8
DEFAULT
 62
     7
 10
76.75290347430106
 20
116.0357601122145
 30
0.0
  0
VERTEX
  5
992
  8
DEFAULT
 62
     7
 10
76.34650237387355
 20
116.1518534678385
 30
0.0
  0
VERTEX
  5
993
  8
DEFAULT
 62
     7
 10
75.92524130603603
 20
116.1864624325681
 30
0.0
  0
VERTEX
  5
994
  8
DEFAULT
 62
     7
 10
75.50535330365976
 20
116.1382044368247
 30
0.0
  0
VERTEX
  5
995
  8
DEFAULT
 62
     7
 10
75.10291933373414
 20
116.0089562643024
 30
0.0
  0
VERTEX
  5
996
  8
DEFAULT
 62
     7
 10
74.73344732086363
 20
115.8036745918658
 30
0.0
  0
VERTEX
  5
997
  8
DEFAULT
 62
     7
 10
74.411116290385
 20
115.5302752313491
 30
0.0
  0
VERTEX
  5
998
  8
DEFAULT
 62
     7
 10
74.14831178473624
 20
115.1992171846452
 30
0.0
  0
VERTEX
  5
999
  8
DEFAULT
 62
     7
 10
73.95514786224734
 20
114.8232790174081
 30
0.0
  0
SEQEND
  5
99A
  8
DEFAULT
 62
     7
  0
POLYLINE
  5
99B
  8
DEFAULT
 62
     7
 66
     1
 10
0.0
 20
0.0
 30
0.0
 70
     1
  0
VERTEX
  5
99C
  8
DEFAULT
 62
     7
 10
36.43857445671773
 20
89.09738309259419
 30
0.0
  0
VERTEX
  5
99D
  8
DEFAULT
 62
     7
 10
36.14850822831452
 20
89.2417305126638
 30
0.0
  0
VERTEX
  5
99E
  8
DEFAULT
 62
     7
 10
35.84817978915971
 20
89.32281461248718
 30
0.0
  0
VERTEX
  5
99F
  8
DEFAULT
 62
     7
 10
35.55552061384726
 20
89.34488317356848
 30
0.0
  0
VERTEX
  5
9A0
  8
DEFAULT
 62
     7
 10
35.26371401379065
 20
89.31332838498483
 30
0.0
  0
VERTEX
  5
9A1
  8
DEFAULT
 62
     7
 10
34.96617307642313
 20
89.22252828163934
 30
0.0
  0
VERTEX
  5
9A2
  8
DEFAULT
 62
     7
 10
34.68094556201289
 20
89.06881371507032
 30
0.0
  0
VERTEX
  5
9A3
  8
DEFAULT
 62
     7
 10
34.42754230587373
 20
88.85605062488048
 30
0.0
  0
VERTEX
  5
9A4
  8
DEFAULT
 62
     7
 10
34.22311153149572
 20
88.59587372821689
 30
0.0
  0
VERTEX
  5
9A5
  8
DEFAULT
 62
     7
 10
34.07877696993816
 20
88.30580582261646
 30
0.0
  0
VERTEX
  5
9A6
  8
DEFAULT
 62
     7
 10
33.99767330281383
 20
88.00547514719868
 30
0.0
  0
VERTEX
  5
9A7
  8
DEFAULT
 62
     7
 10
33.97563045875663
 20
87.71281317655753
 30
0.0
  0
VERTEX
  5
9A8
  8
DEFAULT
 62
     7
 10
34.00718971986622
 20
87.4210132852898
 30
0.0
  0
VERTEX
  5
9A9
  8
DEFAULT
 62
     7
 10
34.09798143722559
 20
87.12348911989454
 30
0.0
  0
VERTEX
  5
9AA
  8
DEFAULT
 62
     7
 10
34.25166581424457
 20
86.83824930603798
 30
0.0
  0
VERTEX
  5
9AB
  8
DEFAULT
 62
     7
 10
34.46445014893258
 20
86.5848376639127
 30
0.0
  0
VERTEX
  5
9AC
  8
DEFAULT
 62
     7
 10
34.72462704559616
 20
86.38041695271805
 30
0.0
  0
VERTEX
  5
9AD
  8
DEFAULT
 62
     7
 10
35.01469327399938
 20
86.23607847770029
 30
0.0
  0
VERTEX
  5
9AE
  8
DEFAULT
 62
     7
 10
35.31502786287734
 20
86.15498599189078
 30
0.0
  0
VERTEX
  5
9AF
  8
DEFAULT
 62
     7
 10
35.60769598324165
 20
86.13291687174375
 30
0.0
  0
VERTEX
  5
9B0
  8
DEFAULT
 62
     7
 10
35.89947910253712
 20
86.16447166032741
 30
0.0
  0
VERTEX
  5
9B1
  8
DEFAULT
 62
     7
 10
36.19702003990464
 20
86.25528070872475
 30
0.0
  0
VERTEX
  5
9B2
  8
DEFAULT
 62
     7
 10
36.48225761749823
 20
86.40897794425577
 30
0.0
  0
VERTEX
  5
9B3
  8
DEFAULT
 62
     7
 10
36.73564410166514
 20
86.62174997949748
 30
0.0
  0
VERTEX
  5
9B4
  8
DEFAULT
 62
     7
 10
36.94007543510889
 20
86.8819352621472
 30
0.0
  0
VERTEX
  5
9B5
  8
DEFAULT
 62
     7
 10
37.08440999666646
 20
87.17200316774762
 30
0.0
  0
VERTEX
  5
9B6
  8
DEFAULT
 62
     7
 10
37.16552596323709
 20
87.4723338431654
 30
0.0
  0
VERTEX
  5
9B7
  8
DEFAULT
 62
     7
 10
37.18757775234617
 20
87.76499525474082
 30
0.0
  0
VERTEX
  5
9B8
  8
DEFAULT
 62
     7
 10
37.15601849123658
 20
88.0567867600224
 30
0.0
  0
VERTEX
  5
9B9
  8
DEFAULT
 62
     7
 10
37.06521167910218
 20
88.35431931140381
 30
0.0
  0
VERTEX
  5
9BA
  8
DEFAULT
 62
     7
 10
36.91152282955727
 20
88.63955912526038
 30
0.0
  0
VERTEX
  5
9BB
  8
DEFAULT
 62
     7
 10
36.69874240832946
 20
88.89296294046525
 30
0.0
  0
SEQEND
  5
9BC
  8
DEFAULT
 62
     7
  0
POLYLINE
  5
9BD
  8
DEFAULT
 62
     7
 66
     1
 10
0.0
 20
0.0
 30
0.0
 70
     1
  0
VERTEX
  5
9BE
  8
DEFAULT
 62
     7
 10
80.15429354880382
 20
114.0987695100477
 30
0.0
  0
VERTEX
  5
9BF
  8
DEFAULT
 62
     7
 10
80.17234410440074
 20
113.9417883223509
 30
0.0
  0
VERTEX
  5
9C0
  8
DEFAULT
 62
     7
 10
80.22067925121654
 20
113.7913498810273
 30
0.0
  0
VERTEX
  5
9C1
  8
DEFAULT
 62
     7
 10
80.2973953704013
 20
113.6532388393045
 30
0.0
  0
VERTEX
  5
9C2
  8
DEFAULT
 62
     7
 10
80.3996099189917
 20
113.5327344549798
 30
0.0
  0
VERTEX
  5
9C3
  8
DEFAULT
 62
     7
 10
80.52337253845805
 20
113.4344954228775
 30
0.0
  0
VERTEX
  5
9C4
  8
DEFAULT
 62
     7
 10
80.6638897991324
 20
113.3622574202824
 30
0.0
  0
VERTEX
  5
9C5
  8
DEFAULT
 62
     7
 10
80.81582933197205
 20
113.3188621783588
 30
0.0
  0
VERTEX
  5
9C6
  8
DEFAULT
 62
     7
 10
80.97331423790197
 20
113.3059382556118
 30
0.0
  0
VERTEX
  5
9C7
  8
DEFAULT
 62
     7
 10
81.1302780945608
 20
113.3239720392364
 30
0.0
  0
VERTEX
  5
9C8
  8
DEFAULT
 62
     7
 10
81.28071653588441
 20
113.3722809099624
 30
0.0
  0
VERTEX
  5
9C9
  8
DEFAULT
 62
     7
 10
81.41882813667297
 20
113.4490227461713
 30
0.0
  0
VERTEX
  5
9CA
  8
DEFAULT
 62
     7
 10
81.53934929296987
 20
113.5512456807478
 30
0.0
  0
VERTEX
  5
9CB
  8
DEFAULT
 62
     7
 10
81.63758832507223
 20
113.6749915282418
 30
0.0
  0
VERTEX
  5
9CC
  8
DEFAULT
 62
     7
 10
81.7097922246571
 20
113.8155345059403
 30
0.0
  0
VERTEX
  5
9CD
  8
DEFAULT
 62
     7
 10
81.75320479761868
 20
113.9674656527939
 30
0.0
  0
VERTEX
  5
9CE
  8
DEFAULT
 62
     7
 10
81.76612872036571
 20
114.1249505587238
 30
0.0
  0
VERTEX
  5
9CF
  8
DEFAULT
 62
     7
 10
81.74809493674105
 20
114.2819144153826
 30
0.0
  0
VERTEX
  5
9D0
  8
DEFAULT
 62
     7
 10
81.69978550694937
 20
114.4323701877442
 30
0.0
  0
VERTEX
  5
9D1
  8
DEFAULT
 62
     7
 10
81.62304367074049
 20
114.5704901745189
 30
0.0
  0
VERTEX
  5
9D2
  8
DEFAULT
 62
     7
 10
81.52082073616397
 20
114.6909856137917
 30
0.0
  0
VERTEX
  5
9D3
  8
DEFAULT
 62
     7
 10
81.39706650268377
 20
114.789224645894
 30
0.0
  0
VERTEX
  5
9D4
  8
DEFAULT
 62
     7
 10
81.25652352498527
 20
114.8614453174511
 30
0.0
  0
VERTEX
  5
9D5
  8
DEFAULT
 62
     7
 10
81.10460132318363
 20
114.9048321733886
 30
0.0
  0
VERTEX
  5
9D6
  8
DEFAULT
 62
     7
 10
80.94712480323982
 20
114.9177818131598
 30
0.0
  0
VERTEX
  5
9D7
  8
DEFAULT
 62
     7
 10
80.79015200152915
 20
114.899739643549
 30
0.0
  0
VERTEX
  5
9D8
  8
DEFAULT
 62
     7
 10
80.63969678823327
 20
114.8514134417851
 30
0.0
  0
VERTEX
  5
9D9
  8
DEFAULT
 62
     7
 10
80.5015768014586
 20
114.7746883775484
 30
0.0
  0
VERTEX
  5
9DA
  8
DEFAULT
 62
     7
 10
80.38108136218578
 20
114.6724654429719
 30
0.0
  0
VERTEX
  5
9DB
  8
DEFAULT
 62
     7
 10
80.28284177101769
 20
114.5487112094917
 30
0.0
  0
VERTEX
  5
9DC
  8
DEFAULT
 62
     7
 10
80.2106384304986
 20
114.4081682317932
 30
0.0
  0
VERTEX
  5
9DD
  8
DEFAULT
 62
     7
 10
80.167225857537
 20
114.2562460299916
 30
0.0
  0
SEQEND
  5
9DE
  8
DEFAULT
 62
     7
  0
POLYLINE
  5
9DF
  8
DEFAULT
 62
     7
 66
     1
 10
0.0
 20
0.0
 30
0.0
 70
     1
  0
VERTEX
  5
9E0
  8
DEFAULT
 62
     7
 10
6.406173321303924
 20
61.85418050899418
 30
0.0
  0
VERTEX
  5
9E1
  8
DEFAULT
 62
     7
 10
6.384099169565198
 20
61.56151462489283
 30
0.0
  0
VERTEX
  5
9E2
  8
DEFAULT
 62
     7
 10
6.415672966384068
 20
61.26971864708531
 30
0.0
  0
VERTEX
  5
9E3
  8
DEFAULT
 62
     7
 10
6.506473628795304
 20
60.97219895421597
 30
0.0
  0
VERTEX
  5
9E4
  8
DEFAULT
 62
     7
 10
6.660185959101353
 20
60.6869630538196
 30
0.0
  0
VERTEX
  5
9E5
  8
DEFAULT
 62
     7
 10
6.872933954516165
 20
60.43355979768045
 30
0.0
  0
VERTEX
  5
9E6
  8
DEFAULT
 62
     7
 10
7.133134331940894
 20
60.22913964555152
 30
0.0
  0
VERTEX
  5
9E7
  8
DEFAULT
 62
     7
 10
7.423200001278366
 20
60.08478775295598
 30
0.0
  0
VERTEX
  5
9E8
  8
DEFAULT
 62
     7
 10
7.723528440433178
 20
60.00369526714648
 30
0.0
  0
VERTEX
  5
9E9
  8
DEFAULT
 62
     7
 10
8.016188174811367
 20
59.98163061952536
 30
0.0
  0
VERTEX
  5
9EA
  8
DEFAULT
 62
     7
 10
8.30798527075037
 20
60.01319435316088
 30
0.0
  0
VERTEX
  5
9EB
  8
DEFAULT
 62
     7
 10
8.605490986976177
 20
60.10399054304618
 30
0.0
  0
VERTEX
  5
9EC
  8
DEFAULT
 62
     7
 10
8.890741423081819
 20
60.25769616456333
 30
0.0
  0
VERTEX
  5
9ED
  8
DEFAULT
 62
     7
 10
9.144128466314472
 20
60.47046764073928
 30
0.0
  0
VERTEX
  5
9EE
  8
DEFAULT
 62
     7
 10
9.348558681626743
 20
60.73064453740287
 30
0.0
  0
VERTEX
  5
9EF
  8
DEFAULT
 62
     7
 10
9.492923991800085
 20
61.02072586058112
 30
0.0
  0
VERTEX
  5
9F0
  8
DEFAULT
 62
     7
 10
9.573995792177145
 20
61.32104367748684
 30
0.0
  0
VERTEX
  5
9F1
  8
DEFAULT
 62
     7
 10
9.596069943915873
 20
61.61370508906225
 30
0.0
  0
VERTEX
  5
9F2
  8
DEFAULT
 62
     7
 10
9.564503974017384
 20
61.90550498032997
 30
0.0
  0
VERTEX
  5
9F3
  8
DEFAULT
 62
     7
 10
9.47370331160615
 20
62.2030246731993
 30
0.0
  0
VERTEX
  5
9F4
  8
DEFAULT
 62
     7
 10
9.320013343929759
 20
62.48826057359567
 30
0.0
  0
VERTEX
  5
9F5
  8
DEFAULT
 62
     7
 10
9.10724354495103
 20
62.74165935720889
 30
0.0
  0
VERTEX
  5
9F6
  8
DEFAULT
 62
     7
 10
8.84705770323558
 20
62.94608398186375
 30
0.0
  0
VERTEX
  5
9F7
  8
DEFAULT
 62
     7
 10
8.556977498188827
 20
63.09043587445929
 30
0.0
  0
VERTEX
  5
9F8
  8
DEFAULT
 62
     7
 10
8.256671980729418
 20
63.17152836026879
 30
0.0
  0
VERTEX
  5
9F9
  8
DEFAULT
 62
     7
 10
7.963989324655826
 20
63.19359300788991
 30
0.0
  0
VERTEX
  5
9FA
  8
DEFAULT
 62
     7
 10
7.672206764426104
 20
63.16202927425439
 30
0.0
  0
VERTEX
  5
9FB
  8
DEFAULT
 62
     7
 10
7.374686512491018
 20
63.07122078492278
 30
0.0
  0
VERTEX
  5
9FC
  8
DEFAULT
 62
     7
 10
7.089450612094656
 20
62.91752354939175
 30
0.0
  0
VERTEX
  5
9FD
  8
DEFAULT
 62
     7
 10
6.836033379311958
 20
62.70475598667599
 30
0.0
  0
VERTEX
  5
9FE
  8
DEFAULT
 62
     7
 10
6.631618258774711
 20
62.44457461748646
 30
0.0
  0
VERTEX
  5
9FF
  8
DEFAULT
 62
     7
 10
6.487268043376388
 20
62.15449832589989
 30
0.0
  0
SEQEND
  5
A00
  8
DEFAULT
 62
     7
  0
POLYLINE
  5
A01
  8
DEFAULT
 62
     7
 66
     1
 10
0.0
 20
0.0
 30
0.0
 70
     1
  0
VERTEX
  5
A02
  8
DEFAULT
 62
     7
 10
5.88353630348833
 20
66.09065434948083
 30
0.0
  0
VERTEX
  5
A03
  8
DEFAULT
 62
     7
 10
6.033968036023053
 20
66.1389676927327
 30
0.0
  0
VERTEX
  5
A04
  8
DEFAULT
 62
     7
 10
6.172099204112558
 20
66.21571344240179
 30
0.0
  0
VERTEX
  5
A05
  8
DEFAULT
 62
     7
 10
6.292589052727954
 20
66.31792799099219
 30
0.0
  0
VERTEX
  5
A06
  8
DEFAULT
 62
     7
 10
6.390836470816422
 20
66.4416822244724
 30
0.0
  0
VERTEX
  5
A07
  8
DEFAULT
 62
     7
 10
6.463034220678116
 20
66.58221681618475
 30
0.0
  0
VERTEX
  5
A08
  8
DEFAULT
 62
     7
 10
6.5064507070999
 20
66.73415187649846
 30
0.0
  0
VERTEX
  5
A09
  8
DEFAULT
 62
     7
 10
6.519391960884929
 20
66.89162839644226
 30
0.0
  0
VERTEX
  5
A0A
  8
DEFAULT
 62
     7
 10
6.501353704734335
 20
67.04860119815294
 30
0.0
  0
VERTEX
  5
A0B
  8
DEFAULT
 62
     7
 10
6.453031416430591
 20
67.19904355293676
 30
0.0
  0
VERTEX
  5
A0C
  8
DEFAULT
 62
     7
 10
6.376285666761517
 20
67.3371590671855
 30
0.0
  0
VERTEX
  5
A0D
  8
DEFAULT
 62
     7
 10
6.274085653880405
 20
67.45765506552405
 30
0.0
  0
VERTEX
  5
A0E
  8
DEFAULT
 62
     7
 10
6.150321916282586
 20
67.55590248361251
 30
0.0
  0
VERTEX
  5
A0F
  8
DEFAULT
 62
     7
 10
6.009779497649851
 20
67.62811924170943
 30
0.0
  0
VERTEX
  5
A10
  8
DEFAULT
 62
     7
 10
5.85785282332226
 20
67.67151448363303
 30
0.0
  0
VERTEX
  5
A11
  8
DEFAULT
 62
     7
 10
5.700379098707169
 20
67.68445126489212
 30
0.0
  0
VERTEX
  5
A12
  8
DEFAULT
 62
     7
 10
5.543401265404818
 20
67.66640462275541
 30
0.0
  0
VERTEX
  5
A13
  8
DEFAULT
 62
     7
 10
5.392954438095066
 20
67.61809127950353
 30
0.0
  0
VERTEX
  5
A14
  8
DEFAULT
 62
     7
 10
5.254831096925949
 20
67.54135335675484
 30
0.0
  0
VERTEX
  5
A15
  8
DEFAULT
 62
     7
 10
5.134333421390171
 20
67.43913936723018
 30
0.0
  0
VERTEX
  5
A16
  8
DEFAULT
 62
     7
 10
5.036101098076725
 20
67.31538904721016
 30
0.0
  0
VERTEX
  5
A17
  8
DEFAULT
 62
     7
 10
4.963880426519627
 20
67.17484606951169
 30
0.0
  0
VERTEX
  5
A18
  8
DEFAULT
 62
     7
 10
4.920486861793246
 20
67.02291100919798
 30
0.0
  0
VERTEX
  5
A19
  8
DEFAULT
 62
     7
 10
4.907546167073961
 20
66.8654389617801
 30
0.0
  0
VERTEX
  5
A1A
  8
DEFAULT
 62
     7
 10
4.925591691079193
 20
66.70846616006942
 30
0.0
  0
VERTEX
  5
A1B
  8
DEFAULT
 62
     7
 10
4.973906711528298
 20
66.55801933275967
 30
0.0
  0
VERTEX
  5
A1C
  8
DEFAULT
 62
     7
 10
5.050651902131629
 20
66.41990381851095
 30
0.0
  0
VERTEX
  5
A1D
  8
DEFAULT
 62
     7
 10
5.152844647158102
 20
66.29940390671219
 30
0.0
  0
VERTEX
  5
A1E
  8
DEFAULT
 62
     7
 10
5.27660055783554
 20
66.20116040208391
 30
0.0
  0
VERTEX
  5
A1F
  8
DEFAULT
 62
     7
 10
5.417150244322915
 20
66.12894811651294
 30
0.0
  0
VERTEX
  5
A20
  8
DEFAULT
 62
     7
 10
5.569084745570888
 20
66.08554448860322
 30
0.0
  0
VERTEX
  5
A21
  8
DEFAULT
 62
     7
 10
5.726574124026742
 20
66.07262000679043
 30
0.0
  0
SEQEND
  5
A22
  8
DEFAULT
 62
     7
  0
POLYLINE
  5
A23
  8
DEFAULT
 62
     7
 66
     1
 10
0.0
 20
0.0
 30
0.0
 70
     1
  0
VERTEX
  5
A24
  8
DEFAULT
 62
     7
 10
30.61880463264303
 20
85.5688950124111
 30
0.0
  0
VERTEX
  5
A25
  8
DEFAULT
 62
     7
 10
30.46512249188703
 20
85.85413482626764
 30
0.0
  0
VERTEX
  5
A26
  8
DEFAULT
 62
     7
 10
30.25236107889441
 20
86.10752969642068
 30
0.0
  0
VERTEX
  5
A27
  8
DEFAULT
 62
     7
 10
29.9921757962447
 20
86.31195879360148
 30
0.0
  0
VERTEX
  5
A28
  8
DEFAULT
 62
     7
 10
29.70207155137107
 20
86.45630621367108
 30
0.0
  0
VERTEX
  5
A29
  8
DEFAULT
 62
     7
 10
29.4017665929774
 20
86.53739869948059
 30
0.0
  0
VERTEX
  5
A2A
  8
DEFAULT
 62
     7
 10
29.10910070887605
 20
86.55945887457577
 30
0.0
  0
VERTEX
  5
A2B
  8
DEFAULT
 62
     7
 10
28.81730081760834
 20
86.5279040859921
 30
0.0
  0
VERTEX
  5
A2C
  8
DEFAULT
 62
     7
 10
28.51976602996398
 20
86.43709503759476
 30
0.0
  0
VERTEX
  5
A2D
  8
DEFAULT
 62
     7
 10
28.23454522434264
 20
86.28339780206373
 30
0.0
  0
VERTEX
  5
A2E
  8
DEFAULT
 62
     7
 10
27.98112687342845
 20
86.07062576682202
 30
0.0
  0
VERTEX
  5
A2F
  8
DEFAULT
 62
     7
 10
27.77672796579771
 20
85.81044942922418
 30
0.0
  0
VERTEX
  5
A30
  8
DEFAULT
 62
     7
 10
27.63237830946513
 20
85.52037257857188
 30
0.0
  0
VERTEX
  5
A31
  8
DEFAULT
 62
     7
 10
27.55129029618156
 20
85.22005028914022
 30
0.0
  0
VERTEX
  5
A32
  8
DEFAULT
 62
     7
 10
27.52920831752246
 20
84.92738049157869
 30
0.0
  0
VERTEX
  5
A33
  8
DEFAULT
 62
     7
 10
27.56077596461817
 20
84.6355889862971
 30
0.0
  0
VERTEX
  5
A34
  8
DEFAULT
 62
     7
 10
27.6515766270294
 20
84.3380564349157
 30
0.0
  0
VERTEX
  5
A35
  8
DEFAULT
 62
     7
 10
27.80527386256044
 20
84.05282500704527
 30
0.0
  0
VERTEX
  5
A36
  8
DEFAULT
 62
     7
 10
28.01804310247342
 20
83.79942119184037
 30
0.0
  0
VERTEX
  5
A37
  8
DEFAULT
 62
     7
 10
28.27822894418887
 20
83.59500103971146
 30
0.0
  0
VERTEX
  5
A38
  8
DEFAULT
 62
     7
 10
28.56830970830137
 20
83.45064523365572
 30
0.0
  0
VERTEX
  5
A39
  8
DEFAULT
 62
     7
 10
28.8686532422312
 20
83.36956113383233
 30
0.0
  0
VERTEX
  5
A3A
  8
DEFAULT
 62
     7
 10
29.16130626782049
 20
83.34749257275102
 30
0.0
  0
VERTEX
  5
A3B
  8
DEFAULT
 62
     7
 10
29.45309553683911
 20
83.3790473613347
 30
0.0
  0
VERTEX
  5
A3C
  8
DEFAULT
 62
     7
 10
29.75063032448348
 20
83.46986479571817
 30
0.0
  0
VERTEX
  5
A3D
  8
DEFAULT
 62
     7
 10
30.03584218505295
 20
83.62355308619733
 30
0.0
  0
VERTEX
  5
A3E
  8
DEFAULT
 62
     7
 10
30.28925438624398
 20
83.83632512143903
 30
0.0
  0
VERTEX
  5
A3F
  8
DEFAULT
 62
     7
 10
30.49367677463586
 20
84.09651040408873
 30
0.0
  0
VERTEX
  5
A40
  8
DEFAULT
 62
     7
 10
30.63801972217954
 20
84.38657886875491
 30
0.0
  0
VERTEX
  5
A41
  8
DEFAULT
 62
     7
 10
30.71911220798905
 20
84.68690954417269
 30
0.0
  0
VERTEX
  5
A42
  8
DEFAULT
 62
     7
 10
30.7411813281361
 20
84.97957934173424
 30
0.0
  0
VERTEX
  5
A43
  8
DEFAULT
 62
     7
 10
30.70962206702651
 20
85.27137084701582
 30
0.0
  0
SEQEND
  5
A44
  8
DEFAULT
 62
     7
  0
POLYLINE
  5
A45
  8
DEFAULT
 62
     7
 66
     1
 10
0.0
 20
0.0
 30
0.0
 70
     1
  0
VERTEX
  5
A46
  8
DEFAULT
 62
     7
 10
30.11127077583497
 20
67.69565214702375
 30
0.0
  0
VERTEX
  5
A47
  8
DEFAULT
 62
     7
 10
30.07669759131278
 20
67.27439052012052
 30
0.0
  0
VERTEX
  5
A48
  8
DEFAULT
 62
     7
 10
30.12494328760993
 20
66.85448127324604
 30
0.0
  0
VERTEX
  5
A49
  8
DEFAULT
 62
     7
 10
30.25420823210444
 20
66.45206016183249
 30
0.0
  0
VERTEX
  5
A4A
  8
DEFAULT
 62
     7
 10
30.45948599108087
 20
66.0825842355018
 30
0.0
  0
VERTEX
  5
A4B
  8
DEFAULT
 62
     7
 10
30.73287864280858
 20
65.7602615910093
 30
0.0
  0
VERTEX
  5
A4C
  8
DEFAULT
 62
     7
 10
31.06392606726345
 20
65.49746547134662
 30
0.0
  0
VERTEX
  5
A4D
  8
DEFAULT
 62
     7
 10
31.43987932927556
 20
65.30429316287162
 30
0.0
  0
VERTEX
  5
A4E
  8
DEFAULT
 62
     7
 10
31.84627595717716
 20
65.18819086219578
 30
0.0
  0
VERTEX
  5
A4F
  8
DEFAULT
 62
     7
 10
32.26752863902854
 20
65.1536031419643
 30
0.0
  0
VERTEX
  5
A50
  8
DEFAULT
 62
     7
 10
32.68743173617985
 20
65.20186113770777
 30
0.0
  0
VERTEX
  5
A51
  8
DEFAULT
 62
     7
 10
33.08984446160728
 20
65.33110931023005
 30
0.0
  0
VERTEX
  5
A52
  8
DEFAULT
 62
     7
 10
33.45931815167501
 20
65.53639098266667
 30
0.0
  0
VERTEX
  5
A53
  8
DEFAULT
 62
     7
 10
33.78164526869345
 20
65.80979481570921
 30
0.0
  0
VERTEX
  5
A54
  8
DEFAULT
 62
     7
 10
34.04443467956722
 20
66.14084447642705
 30
0.0
  0
VERTEX
  5
A55
  8
DEFAULT
 62
     7
 10
34.23758574354403
 20
66.51678655712432
 30
0.0
  0
VERTEX
  5
A56
  8
DEFAULT
 62
     7
 10
34.35369475300877
 20
66.92319995699816
 30
0.0
  0
VERTEX
  5
A57
  8
DEFAULT
 62
     7
 10
34.3882925364236
 20
67.34445319791529
 30
0.0
  0
VERTEX
  5
A58
  8
DEFAULT
 62
     7
 10
34.34003677694309
 20
67.76435349973791
 30
0.0
  0
VERTEX
  5
A59
  8
DEFAULT
 62
     7
 10
34.21078860442083
 20
68.16678802872924
 30
0.0
  0
VERTEX
  5
A5A
  8
DEFAULT
 62
     7
 10
34.00551979049626
 20
68.536259482534
 30
0.0
  0
VERTEX
  5
A5B
  8
DEFAULT
 62
     7
 10
33.73210980773057
 20
68.85858659955242
 30
0.0
  0
VERTEX
  5
A5C
  8
DEFAULT
 62
     7
 10
33.40107691898498
 20
69.12137824668916
 30
0.0
  0
VERTEX
  5
A5D
  8
DEFAULT
 62
     7
 10
33.02513260202473
 20
69.31453769665211
 30
0.0
  0
VERTEX
  5
A5E
  8
DEFAULT
 62
     7
 10
32.61872758813701
 20
69.43063999732796
 30
0.0
  0
VERTEX
  5
A5F
  8
DEFAULT
 62
     7
 10
32.19747490628563
 20
69.4652405760715
 30
0.0
  0
VERTEX
  5
A60
  8
DEFAULT
 62
     7
 10
31.77756565941115
 20
69.41697866686782
 30
0.0
  0
VERTEX
  5
A61
  8
DEFAULT
 62
     7
 10
31.37515069772076
 20
69.28773440780576
 30
0.0
  0
VERTEX
  5
A62
  8
DEFAULT
 62
     7
 10
31.00566806260117
 20
69.08245664882932
 30
0.0
  0
VERTEX
  5
A63
  8
DEFAULT
 62
     7
 10
30.68335212689757
 20
68.80904051634047
 30
0.0
  0
VERTEX
  5
A64
  8
DEFAULT
 62
     7
 10
30.4205560072349
 20
68.47800818666062
 30
0.0
  0
VERTEX
  5
A65
  8
DEFAULT
 62
     7
 10
30.22737922623396
 20
68.10205716091149
 30
0.0
  0
SEQEND
  5
A66
  8
DEFAULT
 62
     7
  0
POLYLINE
  5
A67
  8
DEFAULT
 62
     7
 66
     1
 10
0.0
 20
0.0
 30
0.0
 70
     1
  0
VERTEX
  5
A68
  8
DEFAULT
 62
     7
 10
80.5403144666895
 20
112.8023301584408
 30
0.0
  0
VERTEX
  5
A69
  8
DEFAULT
 62
     7
 10
80.25022084406494
 20
112.9466949095484
 30
0.0
  0
VERTEX
  5
A6A
  8
DEFAULT
 62
     7
 10
79.9499069406194
 20
113.027778450306
 30
0.0
  0
VERTEX
  5
A6B
  8
DEFAULT
 62
     7
 10
79.6572712460681
 20
113.0498475704531
 30
0.0
  0
VERTEX
  5
A6C
  8
DEFAULT
 62
     7
 10
79.36545402376241
 20
113.0182838368175
 30
0.0
  0
VERTEX
  5
A6D
  8
DEFAULT
 62
     7
 10
79.06791308639488
 20
112.9274921194582
 30
0.0
  0
VERTEX
  5
A6E
  8
DEFAULT
 62
     7
 10
78.78269004451057
 20
112.773786497941
 30
0.0
  0
VERTEX
  5
A6F
  8
DEFAULT
 62
     7
 10
78.52929517435754
 20
112.561015021765
 30
0.0
  0
VERTEX
  5
A70
  8
DEFAULT
 62
     7
 10
78.32485769119063
 20
112.3008381251014
 30
0.0
  0
VERTEX
  5
A71
  8
DEFAULT
 62
     7
 10
78.1805018851349
 20
112.0107612744492
 30
0.0
  0
VERTEX
  5
A72
  8
DEFAULT
 62
     7
 10
78.09940101333927
 20
111.7104389850175
 30
0.0
  0
VERTEX
  5
A73
  8
DEFAULT
 62
     7
 10
78.07732350720609
 20
111.417769187456
 30
0.0
  0
VERTEX
  5
A74
  8
DEFAULT
 62
     7
 10
78.10888724084163
 20
111.1259776821744
 30
0.0
  0
VERTEX
  5
A75
  8
DEFAULT
 62
     7
 10
78.19968734418711
 20
110.8284535167791
 30
0.0
  0
VERTEX
  5
A76
  8
DEFAULT
 62
     7
 10
78.35339296570427
 20
110.5432137029225
 30
0.0
  0
VERTEX
  5
A77
  8
DEFAULT
 62
     7
 10
78.56617338693209
 20
110.2898188327695
 30
0.0
  0
VERTEX
  5
A78
  8
DEFAULT
 62
     7
 10
78.82634189760955
 20
110.0853729636165
 30
0.0
  0
VERTEX
  5
A79
  8
DEFAULT
 62
     7
 10
79.11640980321
 20
109.941033929533
 30
0.0
  0
VERTEX
  5
A7A
  8
DEFAULT
 62
     7
 10
79.4167488646139
 20
109.8599414437235
 30
0.0
  0
VERTEX
  5
A7B
  8
DEFAULT
 62
     7
 10
79.70941922124115
 20
109.8378896546144
 30
0.0
  0
VERTEX
  5
A7C
  8
DEFAULT
 62
     7
 10
80.00120178147087
 20
109.869436057212
 30
0.0
  0
VERTEX
  5
A7D
  8
DEFAULT
 62
     7
 10
80.29872594686616
 20
109.9602361605575
 30
0.0
  0
VERTEX
  5
A7E
  8
DEFAULT
 62
     7
 10
80.58396576072272
 20
110.1139333960885
 30
0.0
  0
VERTEX
  5
A7F
  8
DEFAULT
 62
     7
 10
80.83736957592761
 20
110.3267054313302
 30
0.0
  0
VERTEX
  5
A80
  8
DEFAULT
 62
     7
 10
81.04179811404266
 20
110.5868823279938
 30
0.0
  0
VERTEX
  5
A81
  8
DEFAULT
 62
     7
 10
81.18615447916414
 20
110.8769586195803
 30
0.0
  0
VERTEX
  5
A82
  8
DEFAULT
 62
     7
 10
81.26724696497364
 20
111.177280909012
 30
0.0
  0
VERTEX
  5
A83
  8
DEFAULT
 62
     7
 10
81.28930714006883
 20
111.4699512656393
 30
0.0
  0
VERTEX
  5
A84
  8
DEFAULT
 62
     7
 10
81.25775235148517
 20
111.761733825869
 30
0.0
  0
VERTEX
  5
A85
  8
DEFAULT
 62
     7
 10
81.1669433030878
 20
112.0592753223023
 30
0.0
  0
VERTEX
  5
A86
  8
DEFAULT
 62
     7
 10
81.01324606755678
 20
112.3445151361588
 30
0.0
  0
VERTEX
  5
A87
  8
DEFAULT
 62
     7
 10
80.80048297736694
 20
112.5979100063118
 30
0.0
  0
SEQEND
  5
A88
  8
DEFAULT
 62
     7
  0
POLYLINE
  5
A89
  8
DEFAULT
 62
     7
 66
     1
 10
0.0
 20
0.0
 30
0.0
 70
     1
  0
VERTEX
  5
A8A
  8
DEFAULT
 62
     7
 10
8.592183545130446
 20
67.34599286496747
 30
0.0
  0
VERTEX
  5
A8B
  8
DEFAULT
 62
     7
 10
8.557580171058202
 20
66.92474856910222
 30
0.0
  0
VERTEX
  5
A8C
  8
DEFAULT
 62
     7
 10
8.60583425334148
 20
66.50484770821387
 30
0.0
  0
VERTEX
  5
A8D
  8
DEFAULT
 62
     7
 10
8.73509863877025
 20
66.10242212427438
 30
0.0
  0
VERTEX
  5
A8E
  8
DEFAULT
 62
     7
 10
8.940369129892044
 20
65.73295067046962
 30
0.0
  0
VERTEX
  5
A8F
  8
DEFAULT
 62
     7
 10
9.213777435460514
 20
65.41061908092526
 30
0.0
  0
VERTEX
  5
A90
  8
DEFAULT
 62
     7
 10
9.544817592060749
 20
65.14783637884038
 30
0.0
  0
VERTEX
  5
A91
  8
DEFAULT
 62
     7
 10
9.920777562861755
 20
64.95465959783945
 30
0.0
  0
VERTEX
  5
A92
  8
DEFAULT
 62
     7
 10
10.32717419076335
 20
64.83855729716362
 30
0.0
  0
VERTEX
  5
A93
  8
DEFAULT
 62
     7
 10
10.74841960476009
 20
64.80396119094601
 30
0.0
  0
VERTEX
  5
A94
  8
DEFAULT
 62
     7
 10
11.16832214284567
 20
64.85222310014967
 30
0.0
  0
VERTEX
  5
A95
  8
DEFAULT
 62
     7
 10
11.57075164024534
 20
64.981466800146
 30
0.0
  0
VERTEX
  5
A96
  8
DEFAULT
 62
     7
 10
11.94023259816771
 20
65.18674455912243
 30
0.0
  0
VERTEX
  5
A97
  8
DEFAULT
 62
     7
 10
12.2625524473315
 20
65.46014839216498
 30
0.0
  0
VERTEX
  5
A98
  8
DEFAULT
 62
     7
 10
12.52534688979695
 20
65.79120196634301
 30
0.0
  0
VERTEX
  5
A99
  8
DEFAULT
 62
     7
 10
12.71851528481175
 20
66.16714851956623
 30
0.0
  0
VERTEX
  5
A9A
  8
DEFAULT
 62
     7
 10
12.83462485334223
 20
66.57355353345393
 30
0.0
  0
VERTEX
  5
A9B
  8
DEFAULT
 62
     7
 10
12.8692136917052
 20
66.99480230184513
 30
0.0
  0
VERTEX
  5
A9C
  8
DEFAULT
 62
     7
 10
12.82093668772651
 20
67.41470316273347
 30
0.0
  0
VERTEX
  5
A9D
  8
DEFAULT
 62
     7
 10
12.69170249184778
 20
67.8171332191989
 30
0.0
  0
VERTEX
  5
A9E
  8
DEFAULT
 62
     7
 10
12.48641746501671
 20
68.18660020047771
 30
0.0
  0
VERTEX
  5
A9F
  8
DEFAULT
 62
     7
 10
12.21301698636862
 20
68.50892284497021
 30
0.0
  0
VERTEX
  5
AA0
  8
DEFAULT
 62
     7
 10
11.88197682976839
 20
68.77173182314495
 30
0.0
  0
VERTEX
  5
AA1
  8
DEFAULT
 62
     7
 10
11.50603139467666
 20
68.9648912731079
 30
0.0
  0
VERTEX
  5
AA2
  8
DEFAULT
 62
     7
 10
11.0996191129343
 20
69.08099357378373
 30
0.0
  0
VERTEX
  5
AA3
  8
DEFAULT
 62
     7
 10
10.67837369893756
 20
69.11558968000134
 30
0.0
  0
VERTEX
  5
AA4
  8
DEFAULT
 62
     7
 10
10.25844879822233
 20
69.06732329827175
 30
0.0
  0
VERTEX
  5
AA5
  8
DEFAULT
 62
     7
 10
9.856042222518058
 20
68.9380795982754
 30
0.0
  0
VERTEX
  5
AA6
  8
DEFAULT
 62
     7
 10
9.486575800304966
 20
68.7328063118249
 30
0.0
  0
VERTEX
  5
AA7
  8
DEFAULT
 62
     7
 10
9.164241415431897
 20
68.45938962027033
 30
0.0
  0
VERTEX
  5
AA8
  8
DEFAULT
 62
     7
 10
8.901438586980328
 20
68.12835729059046
 30
0.0
  0
VERTEX
  5
AA9
  8
DEFAULT
 62
     7
 10
8.708278577951644
 20
67.75240682390705
 30
0.0
  0
SEQEND
  5
AAA
  8
DEFAULT
 62
     7
  0
POLYLINE
  5
AAB
  8
DEFAULT
 62
     7
 66
     1
 10
0.0
 20
0.0
 30
0.0
 70
     1
  0
VERTEX
  5
AAC
  8
DEFAULT
 62
     7
 10
14.90740190187847
 20
67.02791856104488
 30
0.0
  0
VERTEX
  5
AAD
  8
DEFAULT
 62
     7
 10
14.92544015802906
 20
66.87094575933422
 30
0.0
  0
VERTEX
  5
AAE
  8
DEFAULT
 62
     7
 10
14.97375461941242
 20
66.72050731801058
 30
0.0
  0
VERTEX
  5
AAF
  8
DEFAULT
 62
     7
 10
15.0504936602926
 20
66.58239571722204
 30
0.0
  0
VERTEX
  5
AB0
  8
DEFAULT
 62
     7
 10
15.15268528718759
 20
66.4618958054233
 30
0.0
  0
VERTEX
  5
AB1
  8
DEFAULT
 62
     7
 10
15.27644063879928
 20
66.3636439148089
 30
0.0
  0
VERTEX
  5
AB2
  8
DEFAULT
 62
     7
 10
15.41700597912742
 20
66.29143162923792
 30
0.0
  0
VERTEX
  5
AB3
  8
DEFAULT
 62
     7
 10
15.5689404803754
 20
66.2480280013282
 30
0.0
  0
VERTEX
  5
AB4
  8
DEFAULT
 62
     7
 10
15.72642203191087
 20
66.23510407858114
 30
0.0
  0
VERTEX
  5
AB5
  8
DEFAULT
 62
     7
 10
15.88339986521322
 20
66.25313786220582
 30
0.0
  0
VERTEX
  5
AB6
  8
DEFAULT
 62
     7
 10
16.03382432989331
 20
66.30145120545768
 30
0.0
  0
VERTEX
  5
AB7
  8
DEFAULT
 62
     7
 10
16.17196276583745
 20
66.3782014276527
 30
0.0
  0
VERTEX
  5
AB8
  8
DEFAULT
 62
     7
 10
16.29246044137323
 20
66.48040311773104
 30
0.0
  0
VERTEX
  5
AB9
  8
DEFAULT
 62
     7
 10
16.39069332375242
 20
66.6041662962631
 30
0.0
  0
VERTEX
  5
ABA
  8
DEFAULT
 62
     7
 10
16.46290505025765
 20
66.74469585638379
 30
0.0
  0
VERTEX
  5
ABB
  8
DEFAULT
 62
     7
 10
16.50631370975905
 20
66.89663594828919
 30
0.0
  0
VERTEX
  5
ABC
  8
DEFAULT
 62
     7
 10
16.51924713662369
 20
67.05412029515337
 30
0.0
  0
VERTEX
  5
ABD
  8
DEFAULT
 62
     7
 10
16.5012088804731
 20
67.2110886243381
 30
0.0
  0
VERTEX
  5
ABE
  8
DEFAULT
 62
     7
 10
16.4528871512351
 20
67.36152315220154
 30
0.0
  0
VERTEX
  5
ABF
  8
DEFAULT
 62
     7
 10
16.37614084250028
 20
67.49964313897621
 30
0.0
  0
VERTEX
  5
AC0
  8
DEFAULT
 62
     7
 10
16.27393356176453
 20
67.62013857824903
 30
0.0
  0
VERTEX
  5
AC1
  8
DEFAULT
 62
     7
 10
16.15018603707322
 20
67.71839046886342
 30
0.0
  0
VERTEX
  5
AC2
  8
DEFAULT
 62
     7
 10
16.0096357915201
 20
67.79059380938253
 30
0.0
  0
VERTEX
  5
AC3
  8
DEFAULT
 62
     7
 10
15.85770129027213
 20
67.83400246888394
 30
0.0
  0
VERTEX
  5
AC4
  8
DEFAULT
 62
     7
 10
15.70022756565704
 20
67.8469347776171
 30
0.0
  0
VERTEX
  5
AC5
  8
DEFAULT
 62
     7
 10
15.54324917328895
 20
67.82889260800631
 30
0.0
  0
VERTEX
  5
AC6
  8
DEFAULT
 62
     7
 10
15.39280234597919
 20
67.78057926475444
 30
0.0
  0
VERTEX
  5
AC7
  8
DEFAULT
 62
     7
 10
15.25468794986194
 20
67.70383742854555
 30
0.0
  0
VERTEX
  5
AC8
  8
DEFAULT
 62
     7
 10
15.13418971526042
 20
67.60162679341535
 30
0.0
  0
VERTEX
  5
AC9
  8
DEFAULT
 62
     7
 10
15.03595739194697
 20
67.47787703246107
 30
0.0
  0
VERTEX
  5
ACA
  8
DEFAULT
 62
     7
 10
14.96374398824452
 20
67.3373340547626
 30
0.0
  0
VERTEX
  5
ACB
  8
DEFAULT
 62
     7
 10
14.92035042351814
 20
67.18539899444887
 30
0.0
  0
SEQEND
  5
ACC
  8
DEFAULT
 62
     7
  0
POLYLINE
  5
ACD
  8
DEFAULT
 62
     7
 66
     1
 10
0.0
 20
0.0
 30
0.0
 70
     1
  0
VERTEX
  5
ACE
  8
DEFAULT
 62
     7
 10
36.42650366829228
 20
67.37757337057522
 30
0.0
  0
VERTEX
  5
ACF
  8
DEFAULT
 62
     7
 10
36.44455646015214
 20
67.22060895485068
 30
0.0
  0
VERTEX
  5
AD0
  8
DEFAULT
 62
     7
 10
36.49286980340403
 20
67.07015821408075
 30
0.0
  0
VERTEX
  5
AD1
  8
DEFAULT
 62
     7
 10
36.56960101736382
 20
66.93204214076627
 30
0.0
  0
VERTEX
  5
AD2
  8
DEFAULT
 62
     7
 10
36.67180270744215
 20
66.81153831550733
 30
0.0
  0
VERTEX
  5
AD3
  8
DEFAULT
 62
     7
 10
36.79556588597423
 20
66.71329872433924
 30
0.0
  0
VERTEX
  5
AD4
  8
DEFAULT
 62
     7
 10
36.93609991862085
 20
66.64108252530808
 30
0.0
  0
VERTEX
  5
AD5
  8
DEFAULT
 62
     7
 10
37.08804168772346
 20
66.59768728338447
 30
0.0
  0
VERTEX
  5
AD6
  8
DEFAULT
 62
     7
 10
37.24552212112745
 20
66.58475441558556
 30
0.0
  0
VERTEX
  5
AD7
  8
DEFAULT
 62
     7
 10
37.40249492283812
 20
66.60279267173617
 30
0.0
  0
VERTEX
  5
AD8
  8
DEFAULT
 62
     7
 10
37.55293336416175
 20
66.65110601498804
 30
0.0
  0
VERTEX
  5
AD9
  8
DEFAULT
 62
     7
 10
37.69104664214752
 20
66.72785232372286
 30
0.0
  0
VERTEX
  5
ADA
  8
DEFAULT
 62
     7
 10
37.81155941245832
 20
66.83006239978732
 30
0.0
  0
VERTEX
  5
ADB
  8
DEFAULT
 62
     7
 10
37.90978782231158
 20
66.95382110579345
 30
0.0
  0
VERTEX
  5
ADC
  8
DEFAULT
 62
     7
 10
37.98200625760571
 20
67.09435513844008
 30
0.0
  0
VERTEX
  5
ADD
  8
DEFAULT
 62
     7
 10
38.02541491710711
 20
67.24629075781954
 30
0.0
  0
VERTEX
  5
ADE
  8
DEFAULT
 62
     7
 10
38.03833883985416
 20
67.40377119122353
 30
0.0
  0
VERTEX
  5
ADF
  8
DEFAULT
 62
     7
 10
38.02030281996653
 20
67.56074399293418
 30
0.0
  0
VERTEX
  5
AE0
  8
DEFAULT
 62
     7
 10
37.97197214567665
 20
67.71117796173188
 30
0.0
  0
VERTEX
  5
AE1
  8
DEFAULT
 62
     7
 10
37.89523478199371
 20
67.84930186196675
 30
0.0
  0
VERTEX
  5
AE2
  8
DEFAULT
 62
     7
 10
37.79303756444131
 20
67.96980233283124
 30
0.0
  0
VERTEX
  5
AE3
  8
DEFAULT
 62
     7
 10
37.66928500815832
 20
68.06804136493358
 30
0.0
  0
VERTEX
  5
AE4
  8
DEFAULT
 62
     7
 10
37.5287442667228
 20
68.14024470545269
 30
0.0
  0
VERTEX
  5
AE5
  8
DEFAULT
 62
     7
 10
37.37680249762019
 20
68.18366566440041
 30
0.0
  0
VERTEX
  5
AE6
  8
DEFAULT
 62
     7
 10
37.21932038701897
 20
68.19658958714744
 30
0.0
  0
VERTEX
  5
AE7
  8
DEFAULT
 62
     7
 10
37.06234926250553
 20
68.17854741753666
 30
0.0
  0
VERTEX
  5
AE8
  8
DEFAULT
 62
     7
 10
36.91189628547261
 20
68.13023407428479
 30
0.0
  0
VERTEX
  5
AE9
  8
DEFAULT
 62
     7
 10
36.77380425198503
 20
68.05348776554997
 30
0.0
  0
VERTEX
  5
AEA
  8
DEFAULT
 62
     7
 10
36.65329763139739
 20
67.95127321695958
 30
0.0
  0
VERTEX
  5
AEB
  8
DEFAULT
 62
     7
 10
36.55506474901819
 20
67.8275273694655
 30
0.0
  0
VERTEX
  5
AEC
  8
DEFAULT
 62
     7
 10
36.4828440774611
 20
67.68698047830682
 30
0.0
  0
VERTEX
  5
AED
  8
DEFAULT
 62
     7
 10
36.43944268581433
 20
67.53505771743943
 30
0.0
  0
SEQEND
  5
AEE
  8
DEFAULT
 62
     7
  0
POLYLINE
  5
AEF
  8
DEFAULT
 62
     7
 66
     1
 10
0.0
 20
0.0
 30
0.0
 70
     1
  0
VERTEX
  5
AF0
  8
DEFAULT
 62
     7
 10
15.29341778817245
 20
65.73150436739625
 30
0.0
  0
VERTEX
  5
AF1
  8
DEFAULT
 62
     7
 10
15.00332192928493
 20
65.87585625999179
 30
0.0
  0
VERTEX
  5
AF2
  8
DEFAULT
 62
     7
 10
14.70301697089127
 20
65.95695321832724
 30
0.0
  0
VERTEX
  5
AF3
  8
DEFAULT
 62
     7
 10
14.41035667744733
 20
65.97901730688262
 30
0.0
  0
VERTEX
  5
AF4
  8
DEFAULT
 62
     7
 10
14.11856629029723
 20
65.94745413231284
 30
0.0
  0
VERTEX
  5
AF5
  8
DEFAULT
 62
     7
 10
13.8210387705075
 20
65.85664955644141
 30
0.0
  0
VERTEX
  5
AF6
  8
DEFAULT
 62
     7
 10
13.535811815163
 20
65.70295679343633
 30
0.0
  0
VERTEX
  5
AF7
  8
DEFAULT
 62
     7
 10
13.28240911808959
 20
65.49018475819463
 30
0.0
  0
VERTEX
  5
AF8
  8
DEFAULT
 62
     7
 10
13.07797834371158
 20
65.23000786153104
 30
0.0
  0
VERTEX
  5
AF9
  8
DEFAULT
 62
     7
 10
12.93361303353823
 20
64.93990976638055
 30
0.0
  0
VERTEX
  5
AFA
  8
DEFAULT
 62
     7
 10
12.85254179222691
 20
64.63958803601464
 30
0.0
  0
VERTEX
  5
AFB
  8
DEFAULT
 62
     7
 10
12.83048161713172
 20
64.3469260653735
 30
0.0
  0
VERTEX
  5
AFC
  8
DEFAULT
 62
     7
 10
12.86204926422744
 20
64.05514350514377
 30
0.0
  0
VERTEX
  5
AFD
  8
DEFAULT
 62
     7
 10
12.95284209971829
 20
63.75761095376237
 30
0.0
  0
VERTEX
  5
AFE
  8
DEFAULT
 62
     7
 10
13.10654660310396
 20
63.47237952589195
 30
0.0
  0
VERTEX
  5
AFF
  8
DEFAULT
 62
     7
 10
13.31930857516231
 20
63.21897571068704
 30
0.0
  0
VERTEX
  5
B00
  8
DEFAULT
 62
     7
 10
13.57947932210274
 20
63.01454717257199
 30
0.0
  0
VERTEX
  5
B01
  8
DEFAULT
 62
     7
 10
13.86956008621523
 20
62.87019527997644
 30
0.0
  0
VERTEX
  5
B02
  8
DEFAULT
 62
     7
 10
14.1698650446089
 20
62.78910726669289
 30
0.0
  0
VERTEX
  5
B03
  8
DEFAULT
 62
     7
 10
14.46254043282785
 20
62.76705100505789
 30
0.0
  0
VERTEX
  5
B04
  8
DEFAULT
 62
     7
 10
14.75431628426868
 20
62.79860188018136
 30
0.0
  0
VERTEX
  5
B05
  8
DEFAULT
 62
     7
 10
15.05186672575381
 20
62.88940645605278
 30
0.0
  0
VERTEX
  5
B06
  8
DEFAULT
 62
     7
 10
15.33710150801868
 20
63.04310369158382
 30
0.0
  0
VERTEX
  5
B07
  8
DEFAULT
 62
     7
 10
15.59049637817172
 20
63.25587516775976
 30
0.0
  0
VERTEX
  5
B08
  8
DEFAULT
 62
     7
 10
15.79492715254973
 20
63.51606045040946
 30
0.0
  0
VERTEX
  5
B09
  8
DEFAULT
 62
     7
 10
15.93927680888231
 20
63.8061417735877
 30
0.0
  0
VERTEX
  5
B0A
  8
DEFAULT
 62
     7
 10
16.02037879880942
 20
64.10645959049343
 30
0.0
  0
VERTEX
  5
B0B
  8
DEFAULT
 62
     7
 10
16.04243841483887
 20
64.39912100206884
 30
0.0
  0
VERTEX
  5
B0C
  8
DEFAULT
 62
     7
 10
16.01087915372927
 20
64.69090803482449
 30
0.0
  0
VERTEX
  5
B0D
  8
DEFAULT
 62
     7
 10
15.92005612868837
 20
64.9884366727457
 30
0.0
  0
VERTEX
  5
B0E
  8
DEFAULT
 62
     7
 10
15.76635945222309
 20
65.27367201407631
 30
0.0
  0
VERTEX
  5
B0F
  8
DEFAULT
 62
     7
 10
15.55359580296751
 20
65.5270713567553
 30
0.0
  0
SEQEND
  5
B10
  8
DEFAULT
 62
     7
  0
POLYLINE
  5
B11
  8
DEFAULT
 62
     7
 66
     1
 10
0.0
 20
0.0
 30
0.0
 70
     1
  0
VERTEX
  5
B12
  8
DEFAULT
 62
     7
 10
36.81252067271773
 20
66.08115526346644
 30
0.0
  0
VERTEX
  5
B13
  8
DEFAULT
 62
     7
 10
36.52243711327652
 20
66.22550268353605
 30
0.0
  0
VERTEX
  5
B14
  8
DEFAULT
 62
     7
 10
36.22212600515971
 20
66.30659069681961
 30
0.0
  0
VERTEX
  5
B15
  8
DEFAULT
 62
     7
 10
35.92945173507224
 20
66.32865143098054
 30
0.0
  0
VERTEX
  5
B16
  8
DEFAULT
 62
     7
 10
35.63766861577678
 20
66.29709216987095
 30
0.0
  0
VERTEX
  5
B17
  8
DEFAULT
 62
     7
 10
35.34012544214629
 20
66.20627864894765
 30
0.0
  0
VERTEX
  5
B18
  8
DEFAULT
 62
     7
 10
35.05488730548696
 20
66.05259035846849
 30
0.0
  0
VERTEX
  5
B19
  8
DEFAULT
 62
     7
 10
34.80148628561076
 20
65.83981385070086
 30
0.0
  0
VERTEX
  5
B1A
  8
DEFAULT
 62
     7
 10
34.59704880244386
 20
65.5796330405771
 30
0.0
  0
VERTEX
  5
B1B
  8
DEFAULT
 62
     7
 10
34.45271424088629
 20
65.2895522764646
 30
0.0
  0
VERTEX
  5
B1C
  8
DEFAULT
 62
     7
 10
34.37161951881383
 20
64.98923445955887
 30
0.0
  0
VERTEX
  5
B1D
  8
DEFAULT
 62
     7
 10
34.34956772970477
 20
64.69657696144365
 30
0.0
  0
VERTEX
  5
B1E
  8
DEFAULT
 62
     7
 10
34.38112699081436
 20
64.40478098363613
 30
0.0
  0
VERTEX
  5
B1F
  8
DEFAULT
 62
     7
 10
34.47193603921171
 20
64.10726576329272
 30
0.0
  0
VERTEX
  5
B20
  8
DEFAULT
 62
     7
 10
34.62563103847978
 20
63.82202594943617
 30
0.0
  0
VERTEX
  5
B21
  8
DEFAULT
 62
     7
 10
34.83841984569372
 20
63.56862213423127
 30
0.0
  0
VERTEX
  5
B22
  8
DEFAULT
 62
     7
 10
35.09857326159617
 20
63.36420198210235
 30
0.0
  0
VERTEX
  5
B23
  8
DEFAULT
 62
     7
 10
35.38865178944569
 20
63.21984617604661
 30
0.0
  0
VERTEX
  5
B24
  8
DEFAULT
 62
     7
 10
35.68899140991533
 20
63.1387576036973
 30
0.0
  0
VERTEX
  5
B25
  8
DEFAULT
 62
     7
 10
35.98165673495094
 20
63.11670190112805
 30
0.0
  0
VERTEX
  5
B26
  8
DEFAULT
 62
     7
 10
36.27343370452324
 20
63.14826116223763
 30
0.0
  0
VERTEX
  5
B27
  8
DEFAULT
 62
     7
 10
36.57096625590464
 20
63.23906126558312
 30
0.0
  0
VERTEX
  5
B28
  8
DEFAULT
 62
     7
 10
36.85619544751211
 20
63.39275402858823
 30
0.0
  0
VERTEX
  5
B29
  8
DEFAULT
 62
     7
 10
37.10959031766514
 20
63.60553053635586
 30
0.0
  0
VERTEX
  5
B2A
  8
DEFAULT
 62
     7
 10
37.31403618681819
 20
63.86571134647963
 30
0.0
  0
VERTEX
  5
B2B
  8
DEFAULT
 62
     7
 10
37.45837913436186
 20
64.15578819713194
 30
0.0
  0
VERTEX
  5
B2C
  8
DEFAULT
 62
     7
 10
37.53948056522322
 20
64.45611440002378
 30
0.0
  0
VERTEX
  5
B2D
  8
DEFAULT
 62
     7
 10
37.56152340928043
 20
64.748771898139
 30
0.0
  0
VERTEX
  5
B2E
  8
DEFAULT
 62
     7
 10
37.5299730932227
 20
65.04056340342059
 30
0.0
  0
VERTEX
  5
B2F
  8
DEFAULT
 62
     7
 10
37.43915733603643
 20
65.33809148227607
 30
0.0
  0
VERTEX
  5
B30
  8
DEFAULT
 62
     7
 10
37.28547575434617
 20
65.62332738267241
 30
0.0
  0
VERTEX
  5
B31
  8
DEFAULT
 62
     7
 10
37.07269701031558
 20
65.87672225282546
 30
0.0
  0
SEQEND
  5
B32
  8
DEFAULT
 62
     7
  0
POLYLINE
  5
B33
  8
DEFAULT
 62
     7
 66
     1
 10
0.0
 20
0.0
 30
0.0
 70
     1
  0
VERTEX
  5
B34
  8
DEFAULT
 62
     7
 10
80.52815814120558
 20
91.08249471939772
 30
0.0
  0
VERTEX
  5
B35
  8
DEFAULT
 62
     7
 10
80.54620925586822
 20
90.92552191768704
 30
0.0
  0
VERTEX
  5
B36
  8
DEFAULT
 62
     7
 10
80.59452707164604
 20
90.77509242141527
 30
0.0
  0
VERTEX
  5
B37
  8
DEFAULT
 62
     7
 10
80.67126052186879
 20
90.63696348958874
 30
0.0
  0
VERTEX
  5
B38
  8
DEFAULT
 62
     7
 10
80.77347451139345
 20
90.51646805031594
 30
0.0
  0
VERTEX
  5
B39
  8
DEFAULT
 62
     7
 10
80.89723768992552
 20
90.41822901821357
 30
0.0
  0
VERTEX
  5
B3A
  8
DEFAULT
 62
     7
 10
81.03777172257215
 20
90.3460167326426
 30
0.0
  0
VERTEX
  5
B3B
  8
DEFAULT
 62
     7
 10
81.18971125541177
 20
90.30260415968101
 30
0.0
  0
VERTEX
  5
B3C
  8
DEFAULT
 62
     7
 10
81.34718777535558
 20
90.28968023693396
 30
0.0
  0
VERTEX
  5
B3D
  8
DEFAULT
 62
     7
 10
81.5041516320144
 20
90.30771402055863
 30
0.0
  0
VERTEX
  5
B3E
  8
DEFAULT
 62
     7
 10
81.65459007333801
 20
90.35603183633643
 30
0.0
  0
VERTEX
  5
B3F
  8
DEFAULT
 62
     7
 10
81.7927184460988
 20
90.43278205853144
 30
0.0
  0
VERTEX
  5
B40
  8
DEFAULT
 62
     7
 10
81.91321444443736
 20
90.5349798351496
 30
0.0
  0
VERTEX
  5
B41
  8
DEFAULT
 62
     7
 10
82.0114534765397
 20
90.65874245461593
 30
0.0
  0
VERTEX
  5
B42
  8
DEFAULT
 62
     7
 10
82.0836741480968
 20
90.79928543231439
 30
0.0
  0
VERTEX
  5
B43
  8
DEFAULT
 62
     7
 10
82.12707833507228
 20
90.95120763411607
 30
0.0
  0
VERTEX
  5
B44
  8
DEFAULT
 62
     7
 10
82.1399938718332
 20
91.10869254004598
 30
0.0
  0
VERTEX
  5
B45
  8
DEFAULT
 62
     7
 10
82.12196847419466
 20
91.26565695577054
 30
0.0
  0
VERTEX
  5
B46
  8
DEFAULT
 62
     7
 10
82.07365065841682
 20
91.41609483802844
 30
0.0
  0
VERTEX
  5
B47
  8
DEFAULT
 62
     7
 10
81.99691720819409
 20
91.55422376985496
 30
0.0
  0
VERTEX
  5
B48
  8
DEFAULT
 62
     7
 10
81.8947026596037
 20
91.6747275951139
 30
0.0
  0
VERTEX
  5
B49
  8
DEFAULT
 62
     7
 10
81.77094004013736
 20
91.77295824123011
 30
0.0
  0
VERTEX
  5
B4A
  8
DEFAULT
 62
     7
 10
81.63040600749075
 20
91.84517052680108
 30
0.0
  0
VERTEX
  5
B4B
  8
DEFAULT
 62
     7
 10
81.47846591558536
 20
91.88857471377656
 30
0.0
  0
VERTEX
  5
B4C
  8
DEFAULT
 62
     7
 10
81.32099834069342
 20
91.90151540849585
 30
0.0
  0
VERTEX
  5
B4D
  8
DEFAULT
 62
     7
 10
81.16400876701049
 20
91.88345590784706
 30
0.0
  0
VERTEX
  5
B4E
  8
DEFAULT
 62
     7
 10
81.01357032568687
 20
91.83515542310725
 30
0.0
  0
VERTEX
  5
B4F
  8
DEFAULT
 62
     7
 10
80.87545872489832
 20
91.75840520091225
 30
0.0
  0
VERTEX
  5
B50
  8
DEFAULT
 62
     7
 10
80.75495489963939
 20
91.6562074242941
 30
0.0
  0
VERTEX
  5
B51
  8
DEFAULT
 62
     7
 10
80.65671530847129
 20
91.53245319081388
 30
0.0
  0
VERTEX
  5
B52
  8
DEFAULT
 62
     7
 10
80.58451196795221
 20
91.39191077218115
 30
0.0
  0
VERTEX
  5
B53
  8
DEFAULT
 62
     7
 10
80.54110778097673
 20
91.23997962532763
 30
0.0
  0
SEQEND
  5
B54
  8
DEFAULT
 62
     7
  0
POLYLINE
  5
B55
  8
DEFAULT
 62
     7
 66
     1
 10
0.0
 20
0.0
 30
0.0
 70
     1
  0
VERTEX
  5
B56
  8
DEFAULT
 62
     7
 10
7.844361555413874
 20
113.3783378282062
 30
0.0
  0
VERTEX
  5
B57
  8
DEFAULT
 62
     7
 10
7.80975035442125
 20
112.957101918327
 30
0.0
  0
VERTEX
  5
B58
  8
DEFAULT
 62
     7
 10
7.858003877638787
 20
112.5371971439785
 30
0.0
  0
VERTEX
  5
B59
  8
DEFAULT
 62
     7
 10
7.987246459503639
 20
112.1347883320113
 30
0.0
  0
VERTEX
  5
B5A
  8
DEFAULT
 62
     7
 10
8.192531486334712
 20
111.7653084922204
 30
0.0
  0
VERTEX
  5
B5B
  8
DEFAULT
 62
     7
 10
8.46592469712816
 20
111.4429858477279
 30
0.0
  0
VERTEX
  5
B5C
  8
DEFAULT
 62
     7
 10
8.796972680648778
 20
111.1801897280652
 30
0.0
  0
VERTEX
  5
B5D
  8
DEFAULT
 62
     7
 10
9.172909729754384
 20
110.9870129470642
 30
0.0
  0
VERTEX
  5
B5E
  8
DEFAULT
 62
     7
 10
9.579313625510618
 20
110.8709106463884
 30
0.0
  0
VERTEX
  5
B5F
  8
DEFAULT
 62
     7
 10
10.00057525241386
 20
110.8363273986829
 30
0.0
  0
VERTEX
  5
B60
  8
DEFAULT
 62
     7
 10
10.4204772314337
 20
110.8845770084402
 30
0.0
  0
VERTEX
  5
B61
  8
DEFAULT
 62
     7
 10
10.82289163405835
 20
111.0138246218967
 30
0.0
  0
VERTEX
  5
B62
  8
DEFAULT
 62
     7
 10
11.19236532412608
 20
111.2191068533991
 30
0.0
  0
VERTEX
  5
B63
  8
DEFAULT
 62
     7
 10
11.51469188207876
 20
111.4925145999018
 30
0.0
  0
VERTEX
  5
B64
  8
DEFAULT
 62
     7
 10
11.77747178883493
 20
111.8235385435956
 30
0.0
  0
VERTEX
  5
B65
  8
DEFAULT
 62
     7
 10
11.97063179786362
 20
112.1994934828049
 30
0.0
  0
VERTEX
  5
B66
  8
DEFAULT
 62
     7
 10
12.08673521667094
 20
112.6058945832324
 30
0.0
  0
VERTEX
  5
B67
  8
DEFAULT
 62
     7
 10
12.12133020475706
 20
113.0271472650838
 30
0.0
  0
VERTEX
  5
B68
  8
DEFAULT
 62
     7
 10
12.07308394939416
 20
113.4470525984981
 30
0.0
  0
VERTEX
  5
B69
  8
DEFAULT
 62
     7
 10
11.94383465874041
 20
113.8494697964515
 30
0.0
  0
VERTEX
  5
B6A
  8
DEFAULT
 62
     7
 10
11.7385652857501
 20
114.2189239192182
 30
0.0
  0
VERTEX
  5
B6B
  8
DEFAULT
 62
     7
 10
11.46515642111589
 20
114.5412555087626
 30
0.0
  0
VERTEX
  5
B6C
  8
DEFAULT
 62
     7
 10
11.13411570544991
 20
114.8040337383215
 30
0.0
  0
VERTEX
  5
B6D
  8
DEFAULT
 62
     7
 10
10.75817138848967
 20
114.9972110783882
 30
0.0
  0
VERTEX
  5
B6E
  8
DEFAULT
 62
     7
 10
10.35178146937697
 20
115.113313379064
 30
0.0
  0
VERTEX
  5
B6F
  8
DEFAULT
 62
     7
 10
9.930513133684828
 20
115.1479139578076
 30
0.0
  0
VERTEX
  5
B70
  8
DEFAULT
 62
     7
 10
9.510626249440017
 20
115.0996470170122
 30
0.0
  0
VERTEX
  5
B71
  8
DEFAULT
 62
     7
 10
9.108188925119965
 20
114.97039884449
 30
0.0
  0
VERTEX
  5
B72
  8
DEFAULT
 62
     7
 10
8.738745983668018
 20
114.7651255580395
 30
0.0
  0
VERTEX
  5
B73
  8
DEFAULT
 62
     7
 10
8.416411598794946
 20
114.4917178115368
 30
0.0
  0
VERTEX
  5
B74
  8
DEFAULT
 62
     7
 10
8.153609888474861
 20
114.160676536805
 30
0.0
  0
VERTEX
  5
B75
  8
DEFAULT
 62
     7
 10
7.960448761314692
 20
113.7847473146198
 30
0.0
  0
SEQEND
  5
B76
  8
DEFAULT
 62
     7
  0
POLYLINE
  5
B77
  8
DEFAULT
 62
     7
 66
     1
 10
0.0
 20
0.0
 30
0.0
 70
     1
  0
VERTEX
  5
B78
  8
DEFAULT
 62
     7
 10
14.15952735998219
 20
113.0602635242836
 30
0.0
  0
VERTEX
  5
B79
  8
DEFAULT
 62
     7
 10
14.17757903371058
 20
112.9032823365868
 30
0.0
  0
VERTEX
  5
B7A
  8
DEFAULT
 62
     7
 10
14.22588734537079
 20
112.752835509277
 30
0.0
  0
VERTEX
  5
B7B
  8
DEFAULT
 62
     7
 10
14.3026174411991
 20
112.6147155225024
 30
0.0
  0
VERTEX
  5
B7C
  8
DEFAULT
 62
     7
 10
14.40481801314596
 20
112.4942195241638
 30
0.0
  0
VERTEX
  5
B7D
  8
DEFAULT
 62
     7
 10
14.52858063261229
 20
112.3959888780476
 30
0.0
  0
VERTEX
  5
B7E
  8
DEFAULT
 62
     7
 10
14.66912249217929
 20
112.3237682064905
 30
0.0
  0
VERTEX
  5
B7F
  8
DEFAULT
 62
     7
 10
14.82105028463836
 20
112.2803729645669
 30
0.0
  0
VERTEX
  5
B80
  8
DEFAULT
 62
     7
 10
14.97851674139881
 20
112.2674406558337
 30
0.0
  0
VERTEX
  5
B81
  8
DEFAULT
 62
     7
 10
15.13549401563542
 20
112.2854828254445
 30
0.0
  0
VERTEX
  5
B82
  8
DEFAULT
 62
     7
 10
15.28593357509053
 20
112.3338006412223
 30
0.0
  0
VERTEX
  5
B83
  8
DEFAULT
 62
     7
 10
15.42404908933927
 20
112.4105424774312
 30
0.0
  0
VERTEX
  5
B84
  8
DEFAULT
 62
     7
 10
15.54457695442509
 20
112.5127480809697
 30
0.0
  0
VERTEX
  5
B85
  8
DEFAULT
 62
     7
 10
15.64280927773853
 20
112.6365028735157
 30
0.0
  0
VERTEX
  5
B86
  8
DEFAULT
 62
     7
 10
15.71500031881133
 20
112.7770452921484
 30
0.0
  0
VERTEX
  5
B87
  8
DEFAULT
 62
     7
 10
15.75841624616737
 20
112.9289680530158
 30
0.0
  0
VERTEX
  5
B88
  8
DEFAULT
 62
     7
 10
15.77134855490054
 20
113.0864356279077
 30
0.0
  0
VERTEX
  5
B89
  8
DEFAULT
 62
     7
 10
15.75332651165645
 20
113.2434252015907
 30
0.0
  0
VERTEX
  5
B8A
  8
DEFAULT
 62
     7
 10
15.70499695549806
 20
113.3938552569282
 30
0.0
  0
VERTEX
  5
B8B
  8
DEFAULT
 62
     7
 10
15.62825847368363
 20
113.531983629689
 30
0.0
  0
VERTEX
  5
B8C
  8
DEFAULT
 62
     7
 10
15.52604280696175
 20
113.6524796280275
 30
0.0
  0
VERTEX
  5
B8D
  8
DEFAULT
 62
     7
 10
15.40228018749542
 20
113.750727046116
 30
0.0
  0
VERTEX
  5
B8E
  8
DEFAULT
 62
     7
 10
15.26173720979694
 20
113.8229303866351
 30
0.0
  0
VERTEX
  5
B8F
  8
DEFAULT
 62
     7
 10
15.10981165360083
 20
113.8663261876244
 30
0.0
  0
VERTEX
  5
B90
  8
DEFAULT
 62
     7
 10
14.95233625178852
 20
113.8792668823437
 30
0.0
  0
VERTEX
  5
B91
  8
DEFAULT
 62
     7
 10
14.79536680447229
 20
113.8612247127329
 30
0.0
  0
VERTEX
  5
B92
  8
DEFAULT
 62
     7
 10
14.64493507193756
 20
113.812898510969
 30
0.0
  0
VERTEX
  5
B93
  8
DEFAULT
 62
     7
 10
14.50681173076844
 20
113.7361650607462
 30
0.0
  0
VERTEX
  5
B94
  8
DEFAULT
 62
     7
 10
14.38629896045764
 20
113.6339505121558
 30
0.0
  0
VERTEX
  5
B95
  8
DEFAULT
 62
     7
 10
14.28806719620994
 20
113.5102046646618
 30
0.0
  0
VERTEX
  5
B96
  8
DEFAULT
 62
     7
 10
14.2158755960714
 20
113.369662246029
 30
0.0
  0
VERTEX
  5
B97
  8
DEFAULT
 62
     7
 10
14.17246078684684
 20
113.2177394851616
 30
0.0
  0
SEQEND
  5
B98
  8
DEFAULT
 62
     7
  0
POLYLINE
  5
B99
  8
DEFAULT
 62
     7
 66
     1
 10
0.0
 20
0.0
 30
0.0
 70
     1
  0
VERTEX
  5
B9A
  8
DEFAULT
 62
     7
 10
14.5455354193558
 20
111.7638409446488
 30
0.0
  0
VERTEX
  5
B9B
  8
DEFAULT
 62
     7
 10
14.25543956046828
 20
111.9081967507046
 30
0.0
  0
VERTEX
  5
B9C
  8
DEFAULT
 62
     7
 10
13.95512621608849
 20
111.9892724645418
 30
0.0
  0
VERTEX
  5
B9D
  8
DEFAULT
 62
     7
 10
13.6624826946168
 20
112.0113410256231
 30
0.0
  0
VERTEX
  5
B9E
  8
DEFAULT
 62
     7
 10
13.37068392148058
 20
111.9797862370395
 30
0.0
  0
VERTEX
  5
B9F
  8
DEFAULT
 62
     7
 10
13.07314913383621
 20
111.888986133694
 30
0.0
  0
VERTEX
  5
BA0
  8
DEFAULT
 62
     7
 10
12.78792832821487
 20
111.735288898163
 30
0.0
  0
VERTEX
  5
BA1
  8
DEFAULT
 62
     7
 10
12.53452674927293
 20
111.5225084769351
 30
0.0
  0
VERTEX
  5
BA2
  8
DEFAULT
 62
     7
 10
12.33009597489492
 20
111.2623405253234
 30
0.0
  0
VERTEX
  5
BA3
  8
DEFAULT
 62
     7
 10
12.18575302735124
 20
110.9722720606572
 30
0.0
  0
VERTEX
  5
BA4
  8
DEFAULT
 62
     7
 10
12.10467284098806
 20
110.6719581572117
 30
0.0
  0
VERTEX
  5
BA5
  8
DEFAULT
 62
     7
 10
12.08260763430119
 20
110.3792967456363
 30
0.0
  0
VERTEX
  5
BA6
  8
DEFAULT
 62
     7
 10
12.11417304513394
 20
110.0874968543686
 30
0.0
  0
VERTEX
  5
BA7
  8
DEFAULT
 62
     7
 10
12.20495861277016
 20
109.7899726889733
 30
0.0
  0
VERTEX
  5
BA8
  8
DEFAULT
 62
     7
 10
12.35867150214195
 20
109.5047412611029
 30
0.0
  0
VERTEX
  5
BA9
  8
DEFAULT
 62
     7
 10
12.57144241925216
 20
109.2513463909498
 30
0.0
  0
VERTEX
  5
BAA
  8
DEFAULT
 62
     7
 10
12.83161931591575
 20
109.0469089077829
 30
0.0
  0
VERTEX
  5
BAB
  8
DEFAULT
 62
     7
 10
13.12169169404212
 20
108.9025788187513
 30
0.0
  0
VERTEX
  5
BAC
  8
DEFAULT
 62
     7
 10
13.42202125132841
 20
108.8214779469557
 30
0.0
  0
VERTEX
  5
BAD
  8
DEFAULT
 62
     7
 10
13.71468042664086
 20
108.7994261578466
 30
0.0
  0
VERTEX
  5
BAE
  8
DEFAULT
 62
     7
 10
14.0064551599502
 20
108.8309809464303
 30
0.0
  0
VERTEX
  5
BAF
  8
DEFAULT
 62
     7
 10
14.30398323880567
 20
108.9217816088415
 30
0.0
  0
VERTEX
  5
BB0
  8
DEFAULT
 62
     7
 10
14.58921131228165
 20
109.0754782853068
 30
0.0
  0
VERTEX
  5
BB1
  8
DEFAULT
 62
     7
 10
14.84261289122358
 20
109.2882419345624
 30
0.0
  0
VERTEX
  5
BB2
  8
DEFAULT
 62
     7
 10
15.04702912989231
 20
109.5484182721602
 30
0.0
  0
VERTEX
  5
BB3
  8
DEFAULT
 62
     7
 10
15.19137822715915
 20
109.8385040678644
 30
0.0
  0
VERTEX
  5
BB4
  8
DEFAULT
 62
     7
 10
15.27247294923162
 20
110.138809026258
 30
0.0
  0
VERTEX
  5
BB5
  8
DEFAULT
 62
     7
 10
15.2945398331157
 20
110.4314872098057
 30
0.0
  0
VERTEX
  5
BB6
  8
DEFAULT
 62
     7
 10
15.26298057200611
 20
110.7232703291012
 30
0.0
  0
VERTEX
  5
BB7
  8
DEFAULT
 62
     7
 10
15.17214916097909
 20
111.0208028804826
 30
0.0
  0
VERTEX
  5
BB8
  8
DEFAULT
 62
     7
 10
15.01847540620921
 20
111.3060175363808
 30
0.0
  0
VERTEX
  5
BB9
  8
DEFAULT
 62
     7
 10
14.80571343415086
 20
111.5594207925199
 30
0.0
  0
SEQEND
  5
BBA
  8
DEFAULT
 62
     7
  0
ARC
  5
BBB
  8
DEFAULT
 10
6.135494653873783
 20
98.78201116017883
 30
0.0
 40
0.4125564263906427
 50
90.93018796948759
 51
270.9301879694876
  0
ARC
  5
BBC
  8
DEFAULT
 10
14.36843119303932
 20
103.0905333264945
 30
0.0
 40
0.4125462424122476
 50
270.9304790231391
 51
90.93047902313903
  0
POLYLINE
  5
BBD
  8
DEFAULT
 62
     7
 66
     1
 10
0.0
 20
0.0
 30
0.0
  0
VERTEX
  5
BBE
  8
DEFAULT
 62
     7
 10
14.36173176849208
 20
103.5030251686432
 30
0.0
  0
VERTEX
  5
BBF
  8
DEFAULT
 62
     7
 10
3.621670291899184
 20
103.3053496798537
 30
0.0
 42
-0.4148473351402776
  0
VERTEX
  5
BC0
  8
DEFAULT
 62
     7
 10
3.052390233581527
 20
103.8552418553236
 30
0.0
  0
VERTEX
  5
BC1
  8
DEFAULT
 62
     7
 10
3.034691027710263
 20
104.9449982778233
 30
0.0
  0
VERTEX
  5
BC2
  8
DEFAULT
 62
     7
 10
2.795328707669729
 20
119.6772454419449
 30
0.0
  0
VERTEX
  5
BC3
  8
DEFAULT
 62
     7
 10
17.09589996825482
 20
119.9096037863755
 30
0.0
  0
VERTEX
  5
BC4
  8
DEFAULT
 62
     7
 10
17.33528520999075
 20
105.17736500824
 30
0.0
  0
VERTEX
  5
BC5
  8
DEFAULT
 62
     7
 10
17.4200406250755
 20
99.96025301124811
 30
0.0
 42
-0.4135822227923885
  0
VERTEX
  5
BC6
  8
DEFAULT
 62
     7
 10
16.87133506979766
 20
99.39220078208888
 30
0.0
  0
VERTEX
  5
BC7
  8
DEFAULT
 62
     7
 10
6.12879715939303
 20
99.19451321899054
 30
0.0
  0
SEQEND
  5
BC8
  8
DEFAULT
 62
     7
  0
POLYLINE
  5
BC9
  8
DEFAULT
 62
     7
 66
     1
 10
0.0
 20
0.0
 30
0.0
  0
VERTEX
  5
BCA
  8
DEFAULT
 62
     7
 10
6.142192148354536
 20
98.36950910136711
 30
0.0
  0
VERTEX
  5
BCB
  8
DEFAULT
 62
     7
 10
16.88232902871849
 20
98.56717731659903
 30
0.0
 42
-0.4148444430599554
  0
VERTEX
  5
BCC
  8
DEFAULT
 62
     7
 10
17.45160855409623
 20
98.0172901993062
 30
0.0
  0
VERTEX
  5
BCD
  8
DEFAULT
 62
     7
 10
17.46931786712907
 20
96.92751977928047
 30
0.0
  0
VERTEX
  5
BCE
  8
DEFAULT
 62
     7
 10
17.7097865782721
 20
82.12720636112708
 30
0.0
  0
VERTEX
  5
BCF
  8
DEFAULT
 62
     7
 10
17.7902020354686
 20
77.1772701523328
 30
0.0
  0
VERTEX
  5
BD0
  8
DEFAULT
 62
     7
 10
4.989457125129064
 20
76.96930105087662
 30
0.0
  0
VERTEX
  5
BD1
  8
DEFAULT
 62
     7
 10
5.016262650238393
 20
75.31931635124396
 30
0.0
  0
VERTEX
  5
BD2
  8
DEFAULT
 62
     7
 10
17.81699246580291
 20
75.52731116972424
 30
0.0
  0
VERTEX
  5
BD3
  8
DEFAULT
 62
     7
 10
17.84379799091223
 20
73.8773309426175
 30
0.0
  0
VERTEX
  5
BD4
  8
DEFAULT
 62
     7
 10
25.06218873030557
 20
73.99461902173113
 30
0.0
  0
VERTEX
  5
BD5
  8
DEFAULT
 62
     7
 10
24.98178277722668
 20
78.94456808903747
 30
0.0
  0
VERTEX
  5
BD6
  8
DEFAULT
 62
     7
 10
37.78251035652823
 20
79.15247737045931
 30
0.0
  0
VERTEX
  5
BD7
  8
DEFAULT
 62
     7
 10
37.75570706768185
 20
80.80246207009199
 30
0.0
  0
VERTEX
  5
BD8
  8
DEFAULT
 62
     7
 10
24.95493923564692
 20
80.59447563759781
 30
0.0
  0
VERTEX
  5
BD9
  8
DEFAULT
 62
     7
 10
24.92759197583405
 20
82.27844650272407
 30
0.0
  0
VERTEX
  5
BDA
  8
DEFAULT
 62
     7
 10
24.68764151863342
 20
97.04487606441457
 30
0.0
  0
VERTEX
  5
BDB
  8
DEFAULT
 62
     7
 10
24.6072271795684
 20
101.994837990233
 30
0.0
  0
VERTEX
  5
BDC
  8
DEFAULT
 62
     7
 10
37.40800339758946
 20
102.2028322496475
 30
0.0
  0
VERTEX
  5
BDD
  8
DEFAULT
 62
     7
 10
37.38118333677086
 20
103.8528169492802
 30
0.0
  0
VERTEX
  5
BDE
  8
DEFAULT
 62
     7
 10
24.58036183442473
 20
103.6447706967517
 30
0.0
  0
VERTEX
  5
BDF
  8
DEFAULT
 62
     7
 10
24.55354792332928
 20
105.2947553963844
 30
0.0
  0
VERTEX
  5
BE0
  8
DEFAULT
 62
     7
 10
24.31410062529603
 20
120.0272502266295
 30
0.0
  0
VERTEX
  5
BE1
  8
DEFAULT
 62
     7
 10
38.61490110283515
 20
120.2596851630666
 30
0.0
  0
VERTEX
  5
BE2
  8
DEFAULT
 62
     7
 10
38.85435678685452
 20
105.5271819468354
 30
0.0
  0
VERTEX
  5
BE3
  8
DEFAULT
 62
     7
 10
38.93480970145571
 20
100.5772116350309
 30
0.0
  0
VERTEX
  5
BE4
  8
DEFAULT
 62
     7
 10
26.13402677464574
 20
100.3692341475886
 30
0.0
  0
VERTEX
  5
BE5
  8
DEFAULT
 62
     7
 10
26.16083006349211
 20
98.71924944795593
 30
0.0
  0
VERTEX
  5
BE6
  8
DEFAULT
 62
     7
 10
38.96160013179001
 20
98.92722749446398
 30
0.0
  0
VERTEX
  5
BE7
  8
DEFAULT
 62
     7
 10
38.98840342063637
 20
97.27725118081742
 30
0.0
  0
VERTEX
  5
BE8
  8
DEFAULT
 62
     7
 10
39.22888722655442
 20
82.47681868166107
 30
0.0
  0
VERTEX
  5
BE9
  8
DEFAULT
 62
     7
 10
39.30930547907963
 20
77.52687352781493
 30
0.0
  0
VERTEX
  5
BEA
  8
DEFAULT
 62
     7
 10
26.50857398631789
 20
77.31895586040697
 30
0.0
  0
VERTEX
  5
BEB
  8
DEFAULT
 62
     7
 10
26.5353711254411
 20
75.66896277478818
 30
0.0
  0
VERTEX
  5
BEC
  8
DEFAULT
 62
     7
 10
39.33607913744169
 20
75.87696597925459
 30
0.0
  0
VERTEX
  5
BED
  8
DEFAULT
 62
     7
 10
39.36289081227417
 20
74.22698575214784
 30
0.0
  0
VERTEX
  5
BEE
  8
DEFAULT
 62
     7
 10
47.21850859732809
 20
79.35588281826735
 30
0.0
  0
VERTEX
  5
BEF
  8
DEFAULT
 62
     7
 10
47.13808978573714
 20
84.3058357990339
 30
0.0
  0
VERTEX
  5
BF0
  8
DEFAULT
 62
     7
 10
59.93881960130165
 20
84.5137366944696
 30
0.0
  0
VERTEX
  5
BF1
  8
DEFAULT
 62
     7
 10
59.91201183992936
 20
86.16372139410227
 30
0.0
  0
VERTEX
  5
BF2
  8
DEFAULT
 62
     7
 10
47.11126133893242
 20
85.95573496160809
 30
0.0
  0
VERTEX
  5
BF3
  8
DEFAULT
 62
     7
 10
47.08391575631676
 20
87.6397225987066
 30
0.0
  0
VERTEX
  5
BF4
  8
DEFAULT
 62
     7
 10
46.84402064662455
 20
102.4061012854146
 30
0.0
  0
VERTEX
  5
BF5
  8
DEFAULT
 62
     7
 10
46.76360239409934
 20
107.3560542661812
 30
0.0
  0
VERTEX
  5
BF6
  8
DEFAULT
 62
     7
 10
59.56430649263974
 20
107.5639467756307
 30
0.0
  0
VERTEX
  5
BF7
  8
DEFAULT
 62
     7
 10
59.53750711725356
 20
109.2139225302116
 30
0.0
  0
VERTEX
  5
BF8
  8
DEFAULT
 62
     7
 10
46.73682873573728
 20
109.0059791457795
 30
0.0
  0
VERTEX
  5
BF9
  8
DEFAULT
 62
     7
 10
46.71003830540297
 20
110.6559549003603
 30
0.0
  0
VERTEX
  5
BFA
  8
DEFAULT
 62
     7
 10
46.47076152242089
 20
125.3882534985301
 30
0.0
  0
VERTEX
  5
BFB
  8
DEFAULT
 62
     7
 10
60.77136129535879
 20
125.6205520229264
 30
0.0
  0
VERTEX
  5
BFC
  8
DEFAULT
 62
     7
 10
61.01068056733723
 20
110.8882618107426
 30
0.0
  0
VERTEX
  5
BFD
  8
DEFAULT
 62
     7
 10
61.09108652041612
 20
105.9383513189725
 30
0.0
  0
VERTEX
  5
BFE
  8
DEFAULT
 62
     7
 10
48.29039080786185
 20
105.7304336515645
 30
0.0
  0
VERTEX
  5
BFF
  8
DEFAULT
 62
     7
 10
48.31719018324803
 20
104.0804489519319
 30
0.0
  0
VERTEX
  5
C00
  8
DEFAULT
 62
     7
 10
61.11793229825886
 20
104.2884096674019
 30
0.0
  0
VERTEX
  5
C01
  8
DEFAULT
 62
     7
 10
61.14473167364502
 20
102.6384422988072
 30
0.0
  0
VERTEX
  5
C02
  8
DEFAULT
 62
     7
 10
61.38518976253896
 20
87.83806906061949
 30
0.0
  0
VERTEX
  5
C03
  8
DEFAULT
 62
     7
 10
61.46560857412991
 20
82.88812446583908
 30
0.0
  0
VERTEX
  5
C04
  8
DEFAULT
 62
     7
 10
48.66487037257927
 20
82.68022357040337
 30
0.0
  0
VERTEX
  5
C05
  8
DEFAULT
 62
     7
 10
48.69168651993769
 20
81.03023048478458
 30
0.0
  0
VERTEX
  5
C06
  8
DEFAULT
 62
     7
 10
61.4923906184781
 20
81.23823368925099
 30
0.0
  0
VERTEX
  5
C07
  8
DEFAULT
 62
     7
 10
61.51919782078464
 20
79.58825793467018
 30
0.0
  0
VERTEX
  5
C08
  8
DEFAULT
 62
     7
 10
69.53781513624297
 20
74.68331254142583
 30
0.0
  0
VERTEX
  5
C09
  8
DEFAULT
 62
     7
 10
69.4573879386659
 20
79.63325713620624
 30
0.0
  0
VERTEX
  5
C0A
  8
DEFAULT
 62
     7
 10
82.25811775423041
 20
79.84120946569018
 30
0.0
  0
VERTEX
  5
C0B
  8
DEFAULT
 62
     7
 10
82.23130607939792
 20
81.49119360625711
 30
0.0
  0
VERTEX
  5
C0C
  8
DEFAULT
 62
     7
 10
69.43058912234547
 20
81.28320773282869
 30
0.0
  0
VERTEX
  5
C0D
  8
DEFAULT
 62
     7
 10
69.4032312402835
 20
82.96717803888922
 30
0.0
  0
VERTEX
  5
C0E
  8
DEFAULT
 62
     7
 10
69.16329755505514
 20
97.73355672559721
 30
0.0
  0
VERTEX
  5
C0F
  8
DEFAULT
 62
     7
 10
69.08289216104198
 20
102.6835186514157
 30
0.0
  0
VERTEX
  5
C10
  8
DEFAULT
 62
     7
 10
81.88365552055097
 20
102.8914363188236
 30
0.0
  0
VERTEX
  5
C11
  8
DEFAULT
 62
     7
 10
81.85685223170464
 20
104.5414210184563
 30
0.0
  0
VERTEX
  5
C12
  8
DEFAULT
 62
     7
 10
69.05609725818174
 20
104.3334944059964
 30
0.0
  0
VERTEX
  5
C13
  8
DEFAULT
 62
     7
 10
69.02929396933537
 20
105.9834701605772
 30
0.0
  0
VERTEX
  5
C14
  8
DEFAULT
 62
     7
 10
68.78999594185511
 20
120.7158878397501
 30
0.0
  0
VERTEX
  5
C15
  8
DEFAULT
 62
     7
 10
83.09072765430804
 20
120.9481612061879
 30
0.0
  0
VERTEX
  5
C16
  8
DEFAULT
 62
     7
 10
83.3300301543142
 20
106.2157602989874
 30
0.0
  0
VERTEX
  5
C17
  8
DEFAULT
 62
     7
 10
83.4104400208533
 20
101.2658240901931
 30
0.0
  0
VERTEX
  5
C18
  8
DEFAULT
 62
     7
 10
70.60968504733042
 20
101.0578974777333
 30
0.0
  0
VERTEX
  5
C19
  8
DEFAULT
 62
     7
 10
70.63648833617678
 20
99.40790439211446
 30
0.0
  0
VERTEX
  5
C1A
  8
DEFAULT
 62
     7
 10
83.43722653772741
 20
99.61587405263639
 30
0.0
  0
VERTEX
  5
C1B
  8
DEFAULT
 62
     7
 10
83.46402982657378
 20
97.9659066840417
 30
0.0
  0
VERTEX
  5
C1C
  8
DEFAULT
 62
     7
 10
83.70448344294178
 20
83.16553344585398
 30
0.0
  0
VERTEX
  5
C1D
  8
DEFAULT
 62
     7
 10
83.78491064051887
 20
78.21560562304582
 30
0.0
  0
VERTEX
  5
C1E
  8
DEFAULT
 62
     7
 10
70.98417691149416
 20
78.00764490757575
 30
0.0
  0
VERTEX
  5
C1F
  8
DEFAULT
 62
     7
 10
71.01098858632663
 20
76.3576523810227
 30
0.0
  0
VERTEX
  5
C20
  8
DEFAULT
 62
     7
 10
83.81171392936523
 20
76.56565558548911
 30
0.0
  0
VERTEX
  5
C21
  8
DEFAULT
 62
     7
 10
83.83852616326347
 20
74.91568821689444
 30
0.0
  0
VERTEX
  5
C22
  8
DEFAULT
 62
     7
 10
83.90581587498022
 20
70.77468100149785
 30
0.0
  0
VERTEX
  5
C23
  8
DEFAULT
 62
     7
 10
84.0055481716782
 20
64.63753179221729
 30
0.0
  0
VERTEX
  5
C24
  8
DEFAULT
 62
     7
 10
84.30888997517988
 20
64.33932948007754
 30
0.0
  0
VERTEX
  5
C25
  8
DEFAULT
 62
     7
 10
84.2261678127338
 20
70.47614995870207
 30
0.0
  0
VERTEX
  5
C26
  8
DEFAULT
 62
     7
 10
84.17033503525828
 20
74.61694417005111
 30
0.0
  0
VERTEX
  5
C27
  8
DEFAULT
 62
     7
 10
87.7144255221561
 20
71.42680323571012
 30
0.0
  0
VERTEX
  5
C28
  8
DEFAULT
 62
     7
 10
88.00032223825896
 20
71.16947142460519
 30
0.0
  0
VERTEX
  5
C29
  8
DEFAULT
 62
     7
 10
91.84668056336898
 20
67.7072879823023
 30
0.0
  0
VERTEX
  5
C2A
  8
DEFAULT
 62
     7
 10
91.63661272911908
 20
63.57143758930563
 30
0.0
  0
VERTEX
  5
C2B
  8
DEFAULT
 62
     7
 10
91.32528634869682
 20
57.44193192684332
 30
0.0
  0
VERTEX
  5
C2C
  8
DEFAULT
 62
     7
 10
91.6136737026782
 20
57.15844087062629
 30
0.0
  0
VERTEX
  5
C2D
  8
DEFAULT
 62
     7
 10
91.94116602808266
 20
63.28765190544281
 30
0.0
  0
VERTEX
  5
C2E
  8
DEFAULT
 62
     7
 10
92.16213620335822
 20
67.42331892487626
 30
0.0
  0
VERTEX
  5
C2F
  8
DEFAULT
 62
     7
 10
92.42625395443386
 20
72.36687004383649
 30
0.0
  0
VERTEX
  5
C30
  8
DEFAULT
 62
     7
 10
105.2104639364018
 20
71.68381526121087
 30
0.0
  0
VERTEX
  5
C31
  8
DEFAULT
 62
     7
 10
105.2985173497591
 20
73.3316671250396
 30
0.0
  0
VERTEX
  5
C32
  8
DEFAULT
 62
     7
 10
92.51429898180508
 20
74.01471296261333
 30
0.0
  0
VERTEX
  5
C33
  8
DEFAULT
 62
     7
 10
92.60416097283628
 20
75.69650850293931
 30
0.0
  0
VERTEX
  5
C34
  8
DEFAULT
 62
     7
 10
93.39208754352177
 20
90.44383814263603
 30
0.0
  0
VERTEX
  5
C35
  8
DEFAULT
 62
     7
 10
93.65621368058356
 20
95.38738478907031
 30
0.0
  0
VERTEX
  5
C36
  8
DEFAULT
 62
     7
 10
106.4404409935895
 20
94.70434286495676
 30
0.0
  0
VERTEX
  5
C37
  8
DEFAULT
 62
     7
 10
106.5284776349746
 20
96.35219416971974
 30
0.0
  0
VERTEX
  5
C38
  8
DEFAULT
 62
     7
 10
93.74425870795477
 20
97.03521932186105
 30
0.0
  0
VERTEX
  5
C39
  8
DEFAULT
 62
     7
 10
93.83230373532601
 20
98.68306224063791
 30
0.0
  0
VERTEX
  5
C3A
  8
DEFAULT
 62
     7
 10
94.61839601131354
 20
113.3964487629031
 30
0.0
  0
VERTEX
  5
C3B
  8
DEFAULT
 62
     7
 10
108.9006595460606
 20
112.6333888773353
 30
0.0
  0
VERTEX
  5
C3C
  8
DEFAULT
 62
     7
 10
108.1145756560592
 20
97.92000291413582
 30
0.0
  0
VERTEX
  5
C3D
  8
DEFAULT
 62
     7
 10
107.8504405739455
 20
92.97645626770154
 30
0.0
  0
VERTEX
  5
C3E
  8
DEFAULT
 62
     7
 10
95.0662222059915
 20
93.65950657780121
 30
0.0
  0
VERTEX
  5
C3F
  8
DEFAULT
 62
     7
 10
94.9781855646064
 20
92.01164632798636
 30
0.0
  0
VERTEX
  5
C40
  8
DEFAULT
 62
     7
 10
107.7623955465743
 20
91.3285960178867
 30
0.0
  0
VERTEX
  5
C41
  8
DEFAULT
 62
     7
 10
107.6743589051893
 20
89.68074415405796
 30
0.0
  0
VERTEX
  5
C42
  8
DEFAULT
 62
     7
 10
106.8845985988715
 20
74.89947978291588
 30
0.0
  0
VERTEX
  5
C43
  8
DEFAULT
 62
     7
 10
106.6204635167578
 20
69.95593313648158
 30
0.0
  0
VERTEX
  5
C44
  8
DEFAULT
 62
     7
 10
93.83626192077607
 20
70.63898344658125
 30
0.0
  0
VERTEX
  5
C45
  8
DEFAULT
 62
     7
 10
93.74822583845669
 20
68.99112766929234
 30
0.0
  0
VERTEX
  5
C46
  8
DEFAULT
 62
     7
 10
106.5324184893866
 20
68.30804269711669
 30
0.0
  0
VERTEX
  5
C47
  8
DEFAULT
 62
     7
 10
106.4443734620154
 20
66.66019977833984
 30
0.0
  0
VERTEX
  5
C48
  8
DEFAULT
 62
     7
 10
105.6582213659935
 20
51.94684791815057
 30
0.0
  0
VERTEX
  5
C49
  8
DEFAULT
 62
     7
 10
91.37597516228448
 20
52.709967064687
 30
0.0
  0
VERTEX
  5
C4A
  8
DEFAULT
 62
     7
 10
91.09934272458459
 20
52.99325350284263
 30
0.0
  0
VERTEX
  5
C4B
  8
DEFAULT
 62
     7
 10
87.72694020878033
 20
56.4466763849757
 30
0.0
  0
VERTEX
  5
C4C
  8
DEFAULT
 62
     7
 10
87.80961932316434
 20
60.89799918993385
 30
0.0
  0
VERTEX
  5
C4D
  8
DEFAULT
 62
     7
 10
87.92349542405738
 20
67.03115555168837
 30
0.0
  0
VERTEX
  5
C4E
  8
DEFAULT
 62
     7
 10
87.64750255756579
 20
67.28830846175599
 30
0.0
  0
VERTEX
  5
C4F
  8
DEFAULT
 62
     7
 10
87.54833379913528
 20
61.15487871685386
 30
0.0
  0
VERTEX
  5
C50
  8
DEFAULT
 62
     7
 10
87.47635184864981
 20
56.70335129383432
 30
0.0
  0
VERTEX
  5
C51
  8
DEFAULT
 62
     7
 10
84.3689118322567
 20
59.88534496312393
 30
0.0
  0
VERTEX
  5
C52
  8
DEFAULT
 62
     7
 10
84.07791364126234
 20
60.18330855419205
 30
0.0
  0
VERTEX
  5
C53
  8
DEFAULT
 62
     7
 10
69.77721994527987
 20
59.95093735124941
 30
0.0
  0
VERTEX
  5
C54
  8
DEFAULT
 62
     7
 10
61.75859815729561
 20
64.85588721701968
 30
0.0
  0
VERTEX
  5
C55
  8
DEFAULT
 62
     7
 10
47.457896075327
 20
64.62350762809092
 30
0.0
  0
VERTEX
  5
C56
  8
DEFAULT
 62
     7
 10
39.60228276279901
 20
59.49461503449735
 30
0.0
  0
VERTEX
  5
C57
  8
DEFAULT
 62
     7
 10
25.30159130307949
 20
59.2622399180945
 30
0.0
  0
VERTEX
  5
C58
  8
DEFAULT
 62
     7
 10
18.08318267358243
 20
59.14496022496699
 30
0.0
  0
VERTEX
  5
C59
  8
DEFAULT
 62
     7
 10
27.34789770688558
 20
44.42414819152271
 30
0.0
  0
VERTEX
  5
C5A
  8
DEFAULT
 62
     7
 10
30.26869753892777
 20
37.50085583127213
 30
0.0
  0
VERTEX
  5
C5B
  8
DEFAULT
 62
     7
 10
39.8487636669265
 20
26.30608820165468
 30
0.0
  0
VERTEX
  5
C5C
  8
DEFAULT
 62
     7
 10
28.98203848340318
 20
17.00673065967738
 30
0.0
  0
VERTEX
  5
C5D
  8
DEFAULT
 62
     7
 10
23.24213064144086
 20
12.09470917134244
 30
0.0
  0
VERTEX
  5
C5E
  8
DEFAULT
 62
     7
 10
12.37541943456108
 20
2.795328707669729
 30
0.0
  0
VERTEX
  5
C5F
  8
DEFAULT
 62
     7
 10
2.795328707669729
 20
13.99009521915569
 30
0.0
  0
VERTEX
  5
C60
  8
DEFAULT
 62
     7
 10
10.43260951709073
 20
20.5258225219425
 30
0.0
  0
VERTEX
  5
C61
  8
DEFAULT
 62
     7
 10
13.66203991454951
 20
23.28946729684228
 30
0.0
  0
VERTEX
  5
C62
  8
DEFAULT
 62
     7
 10
19.40197235540446
 20
28.20149102144018
 30
0.0
  0
VERTEX
  5
C63
  8
DEFAULT
 62
     7
 10
15.15653054135786
 20
39.24457069780168
 30
0.0
  0
VERTEX
  5
C64
  8
DEFAULT
 62
     7
 10
3.782490095731429
 20
58.91259349455027
 30
0.0
  0
VERTEX
  5
C65
  8
DEFAULT
 62
     7
 10
3.54308975922047
 20
73.6449686847267
 30
0.0
  0
VERTEX
  5
C66
  8
DEFAULT
 62
     7
 10
3.462666475103588
 20
78.59491327950713
 30
0.0
  0
VERTEX
  5
C67
  8
DEFAULT
 62
     7
 10
16.26341138544312
 20
78.80288238096328
 30
0.0
  0
VERTEX
  5
C68
  8
DEFAULT
 62
     7
 10
16.23660697846528
 20
80.45286652153021
 30
0.0
  0
VERTEX
  5
C69
  8
DEFAULT
 62
     7
 10
3.435914620305447
 20
80.24487226211568
 30
0.0
  0
VERTEX
  5
C6A
  8
DEFAULT
 62
     7
 10
3.408560092637932
 20
81.92882523713823
 30
0.0
  0
VERTEX
  5
C6B
  8
DEFAULT
 62
     7
 10
3.16864821097347
 20
96.69515304886374
 30
0.0
  0
VERTEX
  5
C6C
  8
DEFAULT
 62
     7
 10
3.083881610722562
 20
101.9122840665095
 30
0.0
 42
-0.4135823873067799
  0
VERTEX
  5
C6D
  8
DEFAULT
 62
     7
 10
3.632586296199206
 20
102.480337445034
 30
0.0
  0
VERTEX
  5
C6E
  8
DEFAULT
 62
     7
 10
14.37513061758655
 20
102.6780414843458
 30
0.0
  0
SEQEND
  5
C6F
  8
DEFAULT
 62
     7
  0
DIMENSION
  5
C72
  8
DEFAULT
  2
*D1
 10
38.5240061644933
 20
125.8520904940798
 30
0.0
 11
31.36141757435422
 21
126.4857739820487
 31
0.0
 70
    33
  1
<>
  3
DEFAULT
 13
24.31410062529603
 23
120.0272502266295
 33
0.0
 14
38.61490110283515
 24
120.2596851630666
 34
0.0
  0
ENDSEC
  0
EOF
