<?xml version="1.0" standalone="no"?>
<!DOCTYPE svg PUBLIC "-//W3C//DTD SVG 1.1//EN" "http://www.w3.org/Graphics/SVG/1.1/DTD/svg11.dtd">
<svg xmlns="http://www.w3.org/2000/svg">
<defs >
<font id="Merriweather" horiz-adv-x="669" ><font-face
    font-family="Merriweather"
    units-per-em="1000"
    panose-1="0 0 8 0 0 0 0 0 0 0"
    ascent="984"
    descent="-273"
    alphabetic="0" />
<glyph unicode=" " glyph-name="space" horiz-adv-x="237" />
<glyph unicode="!" glyph-name="exclam" horiz-adv-x="352" d="M216 250H130L92 885H253L216 250ZM92 102T119 126T183 150Q220 150 241 128T263 74Q263 36 237 14T169 -9Q138 -9 115 12T92 66Q92 102 119 126Z" />
<glyph unicode="&quot;" glyph-name="quotedbl" horiz-adv-x="632" d="M223 436H138L115 836H247L223 436ZM494 436H409L386 836H518L494 436Z" />
<glyph unicode="#" glyph-name="numbersign" horiz-adv-x="744" d="M71 277H192L210 461H95V535H222L245 743H352L328 535H478L502 743H609L585 535H698V461H574L556 277H676L677 203H546L524 0H418L439 203H288L266 0H158L181 203H71V277ZM317 461L298 277H446L467
461H317Z" />
<glyph unicode="$" glyph-name="dollar" horiz-adv-x="664" d="M590 121T535 62T369 -8L368 -126H288L289 -10Q228 -6 180 6T84 33L92 211H174L198 88Q235 53 316 53Q446 53 446 165Q446 199 424 226T367 275T269 329Q211 359 174 388T113 459T90 561Q90 634 145
686T295 750V860H377V751Q427 748 465 738T546 715L541 551H461L438 664Q426 675 403 683T352 691Q296 691 262 665T228 591Q228 553 250 525T302 479T393 428Q462 390 500 363T564 296T590 203Q590 121 535 62Z" />
<glyph unicode="%" glyph-name="percent" horiz-adv-x="1063" d="M643 751H736L415 0H323L643 751ZM176 315T134 343T70 419T48 525Q48 592 75 641T148 717T252 743Q349 743 394 685T440 531Q440 464 413 415T338 341T235 315Q176 315 134 343ZM285 375T304 415T324
527Q324 595 306 638T246 682Q205 682 185 642T165 531Q165 467 184 421T243 375Q285 375 304 415ZM750 14T708 42T643 118T621 224Q621 291 648 340T722 416T826 442Q922 442 967 384T1013 230Q1013 163 986 114T911 40T808 14Q750 14 708 42ZM858 75T877 115T897
226Q897 293 879 337T820 381Q778 381 758 341T738 230Q738 166 757 121T816 75Q858 75 877 115Z" />
<glyph unicode="&amp;" glyph-name="ampersand" horiz-adv-x="762" d="M749 345L675 332Q676 269 655 215T600 123Q631 95 660 81T726 64V8Q716 1 687 -3T639 -7Q600 -7 571 3T507 40Q440 -10 324 -10Q195 -10 121 42T47 189Q47 253 90 299T198 370Q158 422 136
468T113 569Q113 619 141 661T220 728T330 753Q393 753 436 733T501 679T522 610Q522 556 503 518T447 450T350 388Q390 340 443 280T531 188L551 169Q586 226 586 310L585 332L508 345V411H749V345ZM245 546T265 507T316 431Q365 473 385 514T405 608Q405 643
388 672T329 702Q292 702 269 673T245 592Q245 546 265 507ZM409 55T450 85Q410 119 365 169T260 293Q249 305 236 322Q208 299 190 268T172 201Q172 136 216 96T340 55Q409 55 450 85Z" />
<glyph unicode="&apos;" glyph-name="quotesingle" horiz-adv-x="362" d="M223 436H138L115 836H247L223 436Z" />
<glyph unicode="(" glyph-name="parenleft" horiz-adv-x="441" d="M57 472T106 578T217 746T319 832L370 794Q339 775 297 717T221 558T187 327Q187 196 220 95T296 -67T371 -150L319 -188Q234 -137 146 -15T57 334Q57 472 106 578Z" />
<glyph unicode=")" glyph-name="parenright" horiz-adv-x="441" d="M384 173T335 67T224 -101T122 -187L71 -149Q102 -130 144 -72T220 87T254 320Q254 450 221 551T146 712T71 795L122 833Q207 782 295 660T384 311Q384 173 335 67Z" />
<glyph unicode="*" glyph-name="asterisk" horiz-adv-x="659" d="M292 573L172 607L68 656L123 753L218 686L311 602L279 720L267 839H384L374 723L347 605L437 689L532 756L590 660L488 609L366 573L488 539L592 492L533 392L442 458L347 541L379 423L391 305H275L284
423L310 542L220 456L127 388L69 485L172 536L292 573Z" />
<glyph unicode="+" glyph-name="plus" horiz-adv-x="661" d="M287 361L284 441V551H377V441L373 361L450 367H559V273H450L373 276L377 198V82H284V198L287 276L196 273H102V367H196L287 361Z" />
<glyph unicode="," glyph-name="comma" horiz-adv-x="334" d="M209 168T235 131T262 36Q262 -24 242 -82T191 -182T132 -240H131L88 -211V-196Q111 -177 130 -123T149 -22Q149 -7 143 3T124 26Q108 43 100 57T92 98Q92 130 113 149T166 168H172Q209 168 235 131Z" />
<glyph unicode="-" glyph-name="hyphen" horiz-adv-x="631" d="M519 273H112V367H519V273Z" />
<glyph unicode="." glyph-name="period" horiz-adv-x="293" d="M108 -9T85 12T62 67Q62 104 88 127T153 151Q189 151 210 129T231 75Q231 36 206 14T139 -9Q108 -9 85 12Z" />
<glyph unicode="/" glyph-name="slash" horiz-adv-x="431" d="M135 -177H34L296 781H397L135 -177Z" />
<glyph unicode="0" glyph-name="zero" horiz-adv-x="657" d="M191 -10T124 75T56 308Q56 412 95 484T198 593T342 630Q471 630 536 549T601 318Q601 215 564 141T462 28T319 -10Q191 -10 124 75ZM392 50T421 114T451 307Q451 443 424 506T330 570Q206 570 206
319Q206 185 235 118T329 50Q392 50 421 114Z" />
<glyph unicode="1" glyph-name="one" horiz-adv-x="458" d="M178 490Q161 484 117 475T48 462L37 532Q91 543 149 571T245 631H246L325 620V70L439 59V0H58V59L178 69V490Z" />
<glyph unicode="2" glyph-name="two" horiz-adv-x="605" d="M177 136T266 235T355 426Q355 475 325 504T239 534Q187 534 152 515T82 464L44 519Q64 544 101 570T189 613T290 631Q363 631 412 606T486 540T510 449Q510 353 418 256T184 78L474 105L512 189L575
176L546 0H59L38 54Q177 136 266 235Z" />
<glyph unicode="3" glyph-name="three" horiz-adv-x="566" d="M140 -160T106 -156T49 -145V-71Q91 -84 139 -84Q209 -84 260 -61T339 1T366 87Q366 151 328 186T215 223L155 208L134 269Q175 276 215 294Q273 320 305 359T337 444Q337 494 307 517T229 540Q185
540 147 525T81 488L46 549Q75 577 140 604T274 631Q369 631 428 591T488 468Q488 396 432 341T295 257Q305 258 325 258Q414 258 469 213T525 93Q526 21 483 -36T358 -127T169 -160Q140 -160 106 -156Z" />
<glyph unicode="4" glyph-name="four" horiz-adv-x="661" d="M392 0H62L30 52Q116 215 314 681H344L457 623L202 137L158 72L393 86L403 273L512 282V94L640 101V0H512V-160H392V0Z" />
<glyph unicode="5" glyph-name="five" horiz-adv-x="612" d="M128 -93T148 -93Q217 -93 273 -65T363 11T396 119Q396 194 360 227T256 260Q223 260 184 251T118 230L85 253L133 622H442L452 641H521L500 516H226L185 308Q214 323 254 334T341 346Q443 346 497
293T552 143Q552 57 502 -12T362 -121T160 -161Q122 -161 90 -154V-91Q128 -93 148 -93Z" />
<glyph unicode="6" glyph-name="six" horiz-adv-x="671" d="M254 -12T193 29T101 141T69 301Q69 429 132 535T293 707T490 786L519 732Q412 700 340 622T238 440Q263 464 303 480T395 497Q494 497 551 436T609 267Q609 193 577 129T484 27T339 -12Q254 -12 193
29ZM305 421T273 404T223 365Q220 337 220 308Q218 187 247 118T344 49Q401 49 431 103T462 239Q462 334 431 377T346 421Q305 421 273 404Z" />
<glyph unicode="7" glyph-name="seven" horiz-adv-x="594" d="M148 -140Q249 68 400 441L439 535L174 531L123 384L39 400L64 622H541L567 589L409 136L298 -180L148 -140Z" />
<glyph unicode="8" glyph-name="eight" horiz-adv-x="641" d="M54 240T92 288T204 369Q148 405 117 449T86 560Q86 620 118 663T206 730T327 753Q397 753 448 732T526 673T553 586Q553 531 519 486T421 408Q500 363 545 314T590 193Q590 131 555 85T457 14T316
-11Q206 -11 130 36T54 182Q54 240 92 288ZM211 558T231 532T282 486T367 437Q404 460 424 493T445 564Q445 627 414 661T326 695Q278 695 245 668T211 591Q211 558 231 532ZM448 201T428 226T379 271T296 318Q268 332 254 340Q217 316 195 281T172 204Q172 135
211 93T320 51Q353 51 382 65T430 106T448 167Q448 201 428 226Z" />
<glyph unicode="9" glyph-name="nine" horiz-adv-x="661" d="M417 631T477 592T568 484T598 326Q598 193 540 85T387 -90T192 -170L163 -116Q270 -83 337 -5T430 180Q405 155 367 139T282 122Q216 122 165 152T86 236T57 362Q57 435 89 496T184 594T330 631Q417
631 477 592ZM363 198T396 216T444 256Q446 277 448 319Q448 439 420 504T322 570Q266 570 235 517T204 388Q204 291 236 245T323 198Q363 198 396 216Z" />
<glyph unicode=":" glyph-name="colon" horiz-adv-x="341" d="M131 399T108 420T85 475Q85 512 111 535T176 559Q212 559 233 537T255 483Q255 444 229 422T162 399Q131 399 108 420ZM131 -9T108 12T85 67Q85 104 111 127T176 151Q212 151 233 129T255 75Q255
36 229 14T162 -9Q131 -9 108 12Z" />
<glyph unicode=";" glyph-name="semicolon" horiz-adv-x="341" d="M132 399T109 420T86 475Q86 512 112 535T177 559Q213 559 234 537T255 483Q255 444 230 422T163 399Q132 399 109 420ZM209 168T235 131T262 36Q262 -24 242 -82T191 -182T132 -240H131L88 -211V-196Q111
-177 130 -123T149 -22Q149 -7 143 3T124 26Q108 43 100 57T92 98Q92 130 113 149T166 168H172Q209 168 235 131Z" />
<glyph unicode="&lt;" glyph-name="less" d="M555 469L210 301L555 131V27L82 271V330L555 575V469Z" />
<glyph unicode="=" glyph-name="equal" horiz-adv-x="653" d="M556 392H100V481H556V392ZM556 120H100V209H556V120Z" />
<glyph unicode="&gt;" glyph-name="greater" d="M114 27V131L459 301L114 469V575L587 330V271L114 27Z" />
<glyph unicode="?" glyph-name="question" horiz-adv-x="503" d="M138 327T135 388Q135 419 155 446T205 497T289 557L325 582Q329 592 334 614T340 657Q340 698 317 735T248 795T135 818Q94 818 60 801L39 880Q59 891 98 899T187 907Q286 907 351 875T447 788T477
668Q477 619 457 583T410 524T339 474Q308 454 290 440T261 410Q256 395 257 380Q257 301 265 254H178Q138 327 135 388ZM174 -9T151 12T128 66Q128 102 155 126T219 150Q256 150 277 128T299 74Q299 36 273 14T205 -9Q174 -9 151 12Z" />
<glyph unicode="@" glyph-name="at" horiz-adv-x="1083" d="M81 337T150 475T345 693T629 773Q736 773 820 729T953 599T1001 397Q1001 271 949 180T825 41T695 -7Q666 -7 646 18T626 87Q626 136 641 219Q605 120 554 53T444 -14Q410 -14 377 10T324 81T303 188Q303
267 335 344T427 471T564 521Q592 521 623 514T680 493Q683 503 691 511T709 517L741 506L780 493Q755 377 740 292T724 146Q724 114 730 95T745 76Q788 76 829 112T897 214T923 364Q923 541 828 619T590 697Q469 697 375 632T227 450T173 186Q173 65 215 -19T330
-145T490 -188Q548 -188 607 -175T696 -142L714 -184Q674 -218 608 -238T468 -258Q357 -258 269 -206T131 -58T81 167Q81 337 150 475ZM413 174T428 133T473 92Q505 92 548 155T621 301Q644 369 649 407Q637 420 601 432T544 445Q503 445 473 413T428 330T413 220Q413
174 428 133Z" />
<glyph unicode="A" glyph-name="A" horiz-adv-x="702" d="M273 747H426L657 70L715 60V0H420V60L495 70L456 200H197L158 69L239 60V0H-16L-17 60L43 70L273 747ZM342 578L324 656L305 577L216 270H436L342 578Z" />
<glyph unicode="B" glyph-name="B" horiz-adv-x="705" d="M118 668L40 681V743H189Q223 743 277 747Q290 748 308 749T350 750Q501 750 561 708T622 581Q622 507 578 458T461 397Q560 398 616 352T673 224Q673 120 600 57T356 -6Q311 -6 273 -3Q263 -3 239 -2T190
0H39V60L118 70V668ZM274 418T308 418H355Q416 418 446 456T476 563Q476 629 445 659T342 689Q323 689 263 685V419Q274 418 308 418ZM286 57T351 57Q436 57 474 97T512 213Q512 286 478 317T368 349Q284 349 263 347V66Q286 57 351 57Z" />
<glyph unicode="C" glyph-name="C" horiz-adv-x="658" d="M209 -11T119 90T29 368Q29 484 76 570T207 704T395 751Q439 751 480 746T577 731Q619 724 623 724L612 518H520L489 661Q478 672 451 679T382 686Q297 686 246 608T194 380Q194 236 243 145T386 54Q431
54 455 62T497 87L541 190L625 182L605 27Q584 25 564 20T538 13Q498 2 464 -4T379 -11Q209 -11 119 90Z" />
<glyph unicode="D" glyph-name="D" horiz-adv-x="761" d="M118 668L43 681V743H189Q222 743 278 747Q291 748 317 749T365 750Q549 750 640 658T732 397Q732 279 687 187T557 44T361 -8Q332 -8 270 -4Q212 0 191 0H39V60L118 70V668ZM297 58T358 58Q458 60 515
138T572 374Q572 523 516 604T342 686Q317 686 295 683T263 679V67Q297 58 358 58Z" />
<glyph unicode="E" glyph-name="E" horiz-adv-x="655" d="M118 668L38 681V743H571L584 575H514L481 674L265 683V414L404 417L420 499H484V257H420L404 343L265 346V64L507 76L565 204L640 183L614 0H39V60L118 70V668Z" />
<glyph unicode="F" glyph-name="F" horiz-adv-x="622" d="M118 668L36 681V743H588L598 562H518L481 672L265 683V400L414 403L433 491H497V237H434L414 327L265 331V70L418 60V0H41V60L118 70V668Z" />
<glyph unicode="G" glyph-name="G" horiz-adv-x="744" d="M276 -11T197 37T76 171T35 363Q35 486 82 574T217 707T420 752Q529 752 665 721L654 535H553L526 663Q516 673 488 681T415 690Q317 690 261 611T205 381Q205 234 253 144T399 53Q439 53 474 63T527 89V304L421
314V381H725V314L672 305V40Q651 39 596 23Q532 6 487 -2T386 -11Q276 -11 197 37Z" />
<glyph unicode="H" glyph-name="H" horiz-adv-x="835" d="M119 668L45 681V743H349V681L265 668V417H569V668L492 681V743H792V681L716 668V70L792 60V0H491V60L569 70V341H265V70L349 60V0H43V60L119 70V668Z" />
<glyph unicode="I" glyph-name="I" horiz-adv-x="411" d="M131 668L46 681V743H366V681L278 668V70L366 59V0H46V60L131 70V668Z" />
<glyph unicode="J" glyph-name="J" horiz-adv-x="391" d="M27 -123T61 -90T112 -7Q123 27 128 74T133 208V667L43 681V743H363V681L279 668V275Q279 168 277 110T266 16Q245 -65 180 -118T20 -188L-13 -136Q27 -123 61 -90Z" />
<glyph unicode="K" glyph-name="K" horiz-adv-x="746" d="M555 0T531 38T464 161Q427 233 402 277T354 350L265 248V70L351 59V0H40V60L119 70V668L41 681V743H342V681L265 668V342L528 668L446 681V743H716V681L633 668L439 450Q474 418 513 360T608 207Q649
138 670 107T702 70L749 59V0H570Q555 0 531 38Z" />
<glyph unicode="L" glyph-name="L" horiz-adv-x="638" d="M119 668L42 681V743H362V681L266 668V71L480 80L543 267L624 256L593 0H40V60L119 70V668Z" />
<glyph unicode="M" glyph-name="M" horiz-adv-x="1017" d="M160 668L52 681V743H364L483 313L511 196L535 313L653 743H962V681L853 668L933 71L1014 60V0H695V60L783 70L739 508L720 691L683 537L538 31H432L284 511L233 691L218 508L180 70L281 60V0H3V60L87
70L160 668Z" />
<glyph unicode="N" glyph-name="N" horiz-adv-x="803" d="M119 668L40 681V743H267L565 293L621 179V668L535 681V743H783V681L706 668V0H585L274 473L204 605V70L305 60V0H40V60L119 70V668Z" />
<glyph unicode="O" glyph-name="O" horiz-adv-x="728" d="M192 -11T111 91T30 369Q30 484 72 571T192 705T369 752Q534 752 616 655T699 382Q699 266 656 177T534 38T355 -11Q192 -11 111 91ZM283 691T237 610T191 370Q191 213 235 132T363 50Q444 50 490 135T536
382Q536 538 492 614T365 691Q283 691 237 610Z" />
<glyph unicode="P" glyph-name="P" horiz-adv-x="661" d="M119 668L44 681V743H195Q216 743 260 745Q318 749 365 749Q469 749 529 724T615 651T641 530Q641 404 563 334T345 264Q290 264 266 267V70L400 60V0H40V60L119 70V668ZM288 326T343 326Q410 326 450
372T491 527Q491 611 455 649T343 688Q315 688 285 684Q271 682 265 682V331Q288 326 343 326Z" />
<glyph unicode="Q" glyph-name="Q" horiz-adv-x="730" d="M758 -191T718 -177T646 -141T566 -85Q519 -51 490 -32T429 -4Q387 -11 356 -11Q194 -11 113 91T31 369Q31 484 73 571T193 705T370 752Q536 752 618 655T700 382Q700 258 651 166T514 27Q553 22 590 6T682
-38Q741 -68 780 -83T858 -99Q885 -99 903 -95L916 -140Q894 -167 867 -179T802 -191Q758 -191 718 -177ZM445 50T491 135T537 382Q537 538 493 614T366 691Q284 691 238 610T192 370Q192 213 237 132T364 50Q445 50 491 135Z" />
<glyph unicode="R" glyph-name="R" horiz-adv-x="721" d="M39 60L118 70V668L43 682V743H188Q207 743 230 744T265 746Q317 750 351 750Q454 750 516 729T606 665T634 552Q634 483 597 424T490 343Q530 326 561 281T627 164Q652 115 665 94T692 69L725 59V0H555Q539
0 522 32T476 135Q443 217 419 263T368 320H265V70L357 60V0H39V60ZM414 381T446 422T478 545Q478 618 447 653T338 688Q310 688 291 686T265 683V383Q277 381 323 381H357Q414 381 446 422Z" />
<glyph unicode="S" glyph-name="S" horiz-adv-x="603" d="M243 -11T200 -2T104 22Q69 32 57 33L66 218H147L169 89Q182 75 215 64T292 53Q359 53 392 82T426 165Q426 200 406 225T351 271T255 319Q172 357 118 409T63 552Q63 608 92 653T178 725T319 752Q368 752
405 745T487 726Q513 719 526 717L520 542H440L419 665Q410 674 383 682T323 691Q263 691 233 664T202 590Q202 553 224 526T279 481T380 428Q436 401 476 375T545 308T574 210Q574 155 547 105T457 22T297 -11Q243 -11 200 -2Z" />
<glyph unicode="T" glyph-name="T" horiz-adv-x="712" d="M282 677L139 672L100 454H16L33 743H678L690 454H611L572 672L431 677V70L571 60V0H154V60L282 70V677Z" />
<glyph unicode="U" glyph-name="U" horiz-adv-x="743" d="M233 -8T159 68T85 307V668L19 681V743H321V681L236 667V294Q236 56 405 56Q488 56 528 117T568 290V667L482 681V743H732V681L664 668V298Q664 142 589 67T385 -8Q233 -8 159 68Z" />
<glyph unicode="V" glyph-name="V" horiz-adv-x="687" d="M-18 743H286V681L201 668L350 220L379 119L404 221L544 668L465 681V743H707V681L643 668L413 -7H294L42 668L-18 681V743Z" />
<glyph unicode="W" glyph-name="W" horiz-adv-x="1017" d="M-18 743H282V681L195 668L321 217L344 106L367 217L474 583L446 668L380 681V743H693V681L597 668L722 217L749 97L770 217L884 668L794 681V743H1035V681L971 668L781 -5H649L511 462L379 -5H249L43
667L-18 681V743Z" />
<glyph unicode="X" glyph-name="X" horiz-adv-x="719" d="M288 363L84 667L15 681V743H342V681L257 667L394 440L535 668L449 681V743H706V681L625 667L431 395L649 70L719 60V0H393V60L477 70L327 315L183 70L279 60V0H6V60L90 70L288 363Z" />
<glyph unicode="Y" glyph-name="Y" horiz-adv-x="651" d="M255 295L41 668L-16 681V743H278V681L207 668L332 423L360 354L389 423L504 668L426 681V743H670V681L608 669L409 296V70L518 60V0H149V60L255 70V295Z" />
<glyph unicode="Z" glyph-name="Z" horiz-adv-x="655" d="M451 687L191 673L137 538L63 548L86 745H593L617 692L255 130L186 61L494 81L550 236L626 221L603 0H53L22 53L392 618L451 687Z" />
<glyph unicode="[" glyph-name="bracketleft" horiz-adv-x="430" d="M90 743T102 765T139 796T203 804Q265 804 349 785V734H213V-66H349V-117Q274 -137 203 -137Q163 -137 139 -129T103 -99T90 -33V700Q90 743 102 765Z" />
<glyph unicode="\" glyph-name="backslash" horiz-adv-x="431" d="M282 -177L21 781H122L384 -177H282Z" />
<glyph unicode="]" glyph-name="bracketright" horiz-adv-x="430" d="M340 -76T328 -98T291 -129T227 -137Q157 -137 81 -117V-66H217V734H81V785Q165 804 227 804Q267 804 291 796T327 766T340 700V-33Q340 -76 328 -98Z" />
<glyph unicode="^" glyph-name="asciicircum" horiz-adv-x="666" d="M585 134H474L332 607L191 134H81L280 748H383L585 134Z" />
<glyph unicode="_" glyph-name="underscore" horiz-adv-x="835" d="M-10 -192V-122H845V-192H-10Z" />
<glyph unicode="`" glyph-name="grave" horiz-adv-x="333" d="M161 652T119 684T37 753T-18 816L68 893L240 685L187 642H186Q161 652 119 684Z" />
<glyph unicode="a" glyph-name="a" horiz-adv-x="566" d="M34 247T125 293T362 340V363Q362 404 354 427T323 461T257 473Q208 473 169 461T88 428L57 492Q72 505 107 523T192 554T293 568Q370 568 413 548T476 484T495 366V60H549V4Q529 -1 492 -6T427 -11Q393
-11 382 -1T370 40V67Q343 37 300 13T203 -11Q157 -11 119 8T57 65T34 156Q34 247 125 293ZM288 72T315 84T362 115V279Q272 279 228 249T183 170Q183 122 205 97T267 72Q288 72 315 84Z" />
<glyph unicode="b" glyph-name="b" horiz-adv-x="618" d="M0 798L183 820H185L213 801V506Q240 533 279 551T365 570Q461 570 521 503T582 296Q582 210 546 140T443 30T286 -11Q207 -11 149 2T75 27V734L0 746V798ZM282 482T256 469T213 438V73Q219 62 241 55T291
48Q355 48 393 107T432 284Q432 385 399 433T312 482Q282 482 256 469Z" />
<glyph unicode="c" glyph-name="c" horiz-adv-x="519" d="M32 361T66 428T165 532T316 570Q356 570 385 564T450 548L479 540L473 369H386L361 479Q355 505 302 505Q246 505 215 456T182 303Q182 193 220 135T321 76Q397 76 461 117L484 65Q458 37 405 13T289
-11Q161 -11 97 68T32 275Q32 361 66 428Z" />
<glyph unicode="d" glyph-name="d" horiz-adv-x="626" d="M192 -11T143 18T65 110T36 265Q36 349 70 418T172 529T333 570Q371 570 405 562V731L307 745V800L513 820H516L544 799V61H598V4Q526 -11 479 -11Q447 -11 434 -1T420 41V69Q394 34 349 12T254 -11Q192
-11 143 18ZM339 72T364 85T405 118V482Q398 492 376 499T327 506Q263 506 225 451T186 273Q186 171 219 122T306 72Q339 72 364 85Z" />
<glyph unicode="e" glyph-name="e" horiz-adv-x="550" d="M165 -11T101 66T36 278Q36 368 69 434T164 535T305 570Q405 570 459 518T515 368Q515 302 507 270H182Q186 179 225 129T336 78Q375 78 416 91T482 122L507 67Q480 38 420 14T297 -11Q165 -11 101 66ZM375
330Q377 358 377 373Q377 506 288 506Q239 506 212 467T182 330H375Z" />
<glyph unicode="f" glyph-name="f" horiz-adv-x="408" d="M114 478H30V534L114 554V598Q114 663 148 717T241 802T364 834Q398 834 428 824V696Q418 706 389 716T327 726Q288 726 272 707T255 640V555H382V478H255V68L360 60V0H35V60L114 69V478Z" />
<glyph unicode="g" glyph-name="g" horiz-adv-x="622" d="M153 -270T93 -228T33 -114Q33 -73 60 -37T127 18Q81 45 81 104Q81 138 103 168T160 216Q105 237 78 280T51 382Q51 439 84 481T174 547T297 570Q414 570 471 525Q484 542 515 557T579 572H614V463H511Q526
431 526 395Q527 304 462 250T284 195Q237 195 205 202Q195 189 190 175T184 149Q184 116 207 104T292 92H399Q603 92 603 -56Q603 -118 559 -167T442 -243T287 -270Q153 -270 93 -228ZM387 257T387 384Q387 449 364 479T292 510Q245 510 220 480T194 388Q194 257
294 257Q387 257 387 384ZM365 -201T411 -171T457 -86Q457 -43 435 -24T354 -5H245Q220 -5 199 -2Q172 -38 172 -88Q172 -143 202 -172T302 -201Q365 -201 411 -171Z" />
<glyph unicode="h" glyph-name="h" horiz-adv-x="670" d="M92 731L16 744V798L202 820H205L231 801L232 578L225 491Q256 519 309 543T422 567Q485 567 520 544T569 472T583 344V69L647 60V0H384V60L442 69V344Q442 396 435 425T410 468T355 482Q324 482 292 468T234
433V69L295 60V0H36V60L92 68V731Z" />
<glyph unicode="i" glyph-name="i" horiz-adv-x="347" d="M128 647T107 668T86 722Q86 760 110 785T174 810Q214 810 235 789T256 735Q256 695 232 671T165 647H164Q128 647 107 668ZM111 461L40 480V547L223 569H225L253 549V68L320 60V0H41V60L111 69V461Z" />
<glyph unicode="j" glyph-name="j" horiz-adv-x="330" d="M130 647T110 668T89 722Q89 760 113 785T177 810Q217 810 237 789T258 735Q258 695 235 671T167 647H166Q130 647 110 668ZM38 547L219 569H221L248 549V9Q248 -69 219 -125T146 -211T55 -243Q5 -243
-6 -239L-13 -182Q13 -182 39 -171Q77 -155 93 -103T110 37L109 459L38 478V547Z" />
<glyph unicode="k" glyph-name="k" horiz-adv-x="629" d="M91 731L19 744V798L203 820H205L232 801V326L229 273L433 487L359 498V555H620V498L539 485L416 367L591 68L646 60V0H382V60L433 69L319 280L229 189L231 138V69L294 60V0H33V60L91 69V731Z" />
<glyph unicode="l" glyph-name="l" horiz-adv-x="340" d="M103 731L29 744V798L214 820H216L243 801V68L316 60V0H33V60L103 69V731Z" />
<glyph unicode="m" glyph-name="m" horiz-adv-x="1013" d="M45 60L101 69V461L37 479V548L203 569L215 561L230 528V486Q263 518 324 542T431 567Q485 567 518 549T569 493Q602 523 656 545T762 567Q851 567 888 515T925 345V69L990 60V0H731V60L783 69V341Q783
419 765 450T694 482Q666 482 637 470T584 439Q591 401 591 344V69L653 60V0H392V60L447 69V344Q447 396 441 425T416 468T364 482Q332 482 301 468T244 433V69L303 60V0H45V60Z" />
<glyph unicode="n" glyph-name="n" horiz-adv-x="681" d="M101 461L37 479V548L203 569H206L231 549V510L230 486Q265 519 321 543T434 567Q495 567 529 545T579 474T594 344V68L655 60V0H397V60L451 68V344Q451 396 444 425T419 468T366 482Q309 482 244 433V69L304
60V0H43V60L101 69V461Z" />
<glyph unicode="o" glyph-name="o" horiz-adv-x="629" d="M45 371T82 437T183 536T320 570Q446 570 514 493T583 282Q583 187 546 121T446 22T308 -11Q183 -11 114 66T45 277Q45 371 82 437ZM429 54T429 272Q429 386 402 445T314 505Q198 505 198 287Q198 173
226 114T316 54Q429 54 429 272Z" />
<glyph unicode="p" glyph-name="p" horiz-adv-x="635" d="M598 212T564 142T463 31T304 -11Q284 -11 263 -8T228 1L231 -82V-173L324 -185V-242H27V-185L92 -173V461L27 479V548L192 569H194L219 549V493Q244 524 287 547T381 570Q476 570 537 503T598 296Q598
212 564 142ZM299 487T272 474T231 445V74Q238 64 259 57T307 50Q372 50 410 106T449 284Q449 386 416 436T329 487Q299 487 272 474Z" />
<glyph unicode="q" glyph-name="q" horiz-adv-x="615" d="M297 -186L406 -174V-23L409 53Q381 25 341 7T254 -11Q193 -11 144 18T65 110T36 266Q36 350 70 419T172 529T333 570Q387 570 451 551L522 566L544 549V-174L613 -186V-242H297V-186ZM338 69T364 82T406
113V484Q400 493 377 501T327 509Q264 509 226 453T187 274Q187 173 220 121T308 69Q338 69 364 82Z" />
<glyph unicode="r" glyph-name="r" horiz-adv-x="471" d="M45 59L111 67V461L47 479V548L202 569H205L230 549V527L227 446H230Q237 466 263 495T328 547T414 570Q436 570 452 564V414Q422 435 379 435Q306 435 252 396V68L368 59V0H45V59Z" />
<glyph unicode="s" glyph-name="s" horiz-adv-x="519" d="M156 82Q164 70 192 60T250 49Q297 49 320 68T344 120Q344 153 315 173T217 224L189 236Q120 265 86 306T52 412Q52 457 79 492T155 548T268 568Q315 568 348 562T419 546Q439 539 449 538V407H370L347
483Q341 493 320 501T272 509Q231 509 207 492T182 443Q182 415 199 397T236 368T310 335Q364 312 399 291T458 237T482 155Q482 81 424 35T257 -11Q206 -11 166 -2T72 22L50 29V161H133L156 82Z" />
<glyph unicode="t" glyph-name="t" horiz-adv-x="408" d="M150 -9T120 20T90 112V479H25V531Q33 534 54 541T86 554Q103 567 115 599Q124 620 148 703H228L232 556H385V479H233V198Q233 142 236 119T249 90T284 83Q309 83 336 88T381 102L400 46Q372 25 318 8T213
-9Q150 -9 120 20Z" />
<glyph unicode="u" glyph-name="u" horiz-adv-x="639" d="M463 -10T448 4T433 46V73Q406 40 357 15T259 -11Q163 -11 122 38T81 202V484L31 498V555L201 568H202L222 554V202Q222 129 240 100T307 71Q366 71 417 117V484L350 499V555L531 568H533L557 554V62H613L612
5Q608 4 575 -3T496 -10Q463 -10 448 4Z" />
<glyph unicode="v" glyph-name="v" horiz-adv-x="571" d="M-6 556H258V498L192 485L283 213L315 107L342 210L431 485L368 498V556H588V498L536 485L350 -8H234L35 485L-6 498V556Z" />
<glyph unicode="w" glyph-name="w" horiz-adv-x="840" d="M-14 555H244V498L174 486L248 220L272 111L294 221L384 555H505L604 221L628 111L652 220L722 485L649 498V555H863V498L812 487L660 -8H545L444 316L421 435L403 316L310 -8H194L34 487L-14 498V555Z" />
<glyph unicode="x" glyph-name="x" horiz-adv-x="605" d="M228 273L63 486L11 498V556H300V498L235 486L314 375L340 333L366 375L447 486L379 498V556H596V498L539 486L381 292L554 68L609 59V0H320V59L379 69L302 186L272 230L248 187L166 69L243 59V0H3V59L67
69L228 273Z" />
<glyph unicode="y" glyph-name="y" horiz-adv-x="573" d="M116 -249T96 -246T66 -239V-132Q73 -136 94 -140T132 -144Q182 -144 214 -111T275 0H221L33 485L-12 498V556H263V498L190 486L279 209L315 91L346 209L428 486L365 498V556H582V498L533 486Q478 318
424 162T361 -13Q329 -97 300 -147T231 -223T134 -249Q116 -249 96 -246Z" />
<glyph unicode="z" glyph-name="z" horiz-adv-x="558" d="M155 484L132 386H60V556H501L524 504L258 135L188 63L412 74L460 189L528 181L512 0H48L23 55L296 416L368 491L155 484Z" />
<glyph unicode="{" glyph-name="braceleft" horiz-adv-x="519" d="M224 -140T182 -106T140 -8Q140 23 147 49T171 114Q185 148 192 171T199 222Q199 248 191 264T154 290T68 299V379Q126 379 154 386T190 406T199 445Q199 471 192 494T171 553Q155 593 148 619T140
677Q140 741 182 774T316 808Q348 808 375 804T448 788V733Q431 734 376 734Q331 734 304 717T276 656Q276 638 281 612T294 560Q305 519 310 495T315 446Q315 399 275 372T169 336Q233 327 274 299T315 222Q315 198 310 175T294 109Q287 84 282 59T276 14Q276
-31 303 -47T376 -64Q414 -64 448 -62V-119Q441 -121 414 -127T363 -136T316 -140Q224 -140 182 -106Z" />
<glyph unicode="|" glyph-name="bar" horiz-adv-x="422" d="M261 -91H161V869H261V-91Z" />
<glyph unicode="}" glyph-name="braceright" horiz-adv-x="519" d="M174 -140T149 -136T101 -126T71 -119V-62Q103 -64 143 -64Q189 -64 216 -48T243 14Q243 33 238 58T225 109Q214 151 209 174T204 222Q204 270 245 298T349 336Q285 345 245 372T204 446Q204
470 209 494T225 560Q232 586 237 612T243 656Q243 734 143 734Q87 734 71 733V788Q116 799 143 803T203 808Q294 808 336 775T378 677Q378 646 371 618T348 554Q334 518 327 495T320 446Q320 421 328 408T365 387T451 380V298Q394 298 366 289T329 264T320 221Q320
195 326 172T348 113Q363 78 370 51T378 -8Q378 -72 336 -106T203 -140Q174 -140 149 -136Z" />
<glyph unicode="~" glyph-name="asciitilde" horiz-adv-x="696" d="M119 325T163 356T258 387Q292 387 317 375T375 337Q397 320 413 311T446 302Q480 302 503 317T546 358L591 307Q570 266 528 236T434 205Q403 205 379 217T327 253Q303 272 286 281T250 291Q191
291 146 236L101 287Q119 325 163 356Z" />
<glyph unicode="&#xa0;" glyph-name="uni00A0" horiz-adv-x="237" />
<glyph unicode="&#xa1;" glyph-name="exclamdown" horiz-adv-x="352" d="M259 589T232 565T168 541Q131 541 110 563T88 617Q88 655 114 677T182 700Q213 700 236 679T259 625Q259 589 232 565ZM133 441H224L261 -185H99L133 441Z" />
<glyph unicode="&#xa2;" glyph-name="cent" horiz-adv-x="582" d="M64 353T93 416T177 519T307 567L316 684H394L385 568Q412 566 432 562T482 548L512 540L505 369H418L393 479Q390 493 374 499T334 505Q278 505 247 456T215 299Q215 191 252 134T353 76Q429
76 493 117L517 65Q494 40 446 17T342 -10L336 -119H259L266 -6Q167 11 116 85T64 273Q64 353 93 416Z" />
<glyph unicode="&#xa3;" glyph-name="sterling" horiz-adv-x="766" d="M186 500Q186 574 221 631T316 720T448 752Q510 752 560 735T643 691L580 600Q573 612 551 631T497 665T431 680Q389 680 362 649T334 531V429H477V363H334V261Q334 203 318 167T273 104Q292
102 316 98T349 91Q421 74 469 74Q531 74 555 97T580 170Q580 199 572 225T552 261H697Q706 251 713 229T720 179Q720 128 693 86T615 18T499 -7Q452 -7 414 2T319 28Q279 41 255 47T207 53Q156 0 104 0Q79 0 61 12T43 48Q43 80 81 102T165 123Q173 135 179 169T186
242V363H93V429H186V500Z" />
<glyph unicode="&#xa4;" glyph-name="currency" horiz-adv-x="755" d="M158 301T158 372Q158 446 199 506L90 615L149 675L260 564Q313 599 376 599Q440 599 495 566L606 676L665 616L557 509Q597 453 597 383Q597 308 554 249L663 141L604 81L494 191Q438 156
376 156Q313 156 259 188L149 79L90 139L197 246Q158 301 158 372ZM432 255T461 289T491 375Q491 410 475 438T432 483T375 500Q322 500 292 464T262 375Q262 325 296 290T377 255Q432 255 461 289Z" />
<glyph unicode="&#xa5;" glyph-name="yen" horiz-adv-x="795" d="M120 671L54 685V743H362V685L290 672L404 463L432 403L462 464L570 672L492 685V743H741V685L667 671L508 402H697V341H477V230H697V168H477V68L588 56V0H229V56L333 68V168H116V230H333V341H116V402H294L120
671Z" />
<glyph unicode="&#xa6;" glyph-name="brokenbar" horiz-adv-x="422" d="M261 464H161V869H261V464ZM261 -91H161V313H261V-91Z" />
<glyph unicode="&#xa7;" glyph-name="section" horiz-adv-x="681" d="M208 5Q221 -10 257 -23T335 -36Q397 -36 428 -15T459 42Q459 71 438 92T386 127T290 168Q190 211 139 261T88 394Q88 436 108 474T164 539Q109 591 109 659Q109 707 140 744T226 802T351 823Q396
823 435 816T518 795Q548 787 552 786L546 632H469L443 728Q437 737 409 747T345 757Q290 757 261 738T232 683Q232 652 249 632T291 600T374 561Q395 551 405 548Q463 523 502 501T570 441T599 352Q599 300 579 258T525 186Q581 137 581 73Q581 28 555 -11T472
-74T331 -99Q279 -99 236 -90T139 -65Q102 -54 94 -53L104 113H189L208 5ZM370 274T406 258T474 224Q500 253 500 290Q500 324 479 350T423 396T324 445Q297 457 265 472T208 504Q180 476 180 437Q180 388 225 353T361 278Q370 274 406 258Z" />
<glyph unicode="&#xa8;" glyph-name="dieresis" horiz-adv-x="500" d="M91 657T73 678T55 730Q55 768 74 792T133 816Q168 816 187 795T206 743Q206 705 185 681T120 657Q91 657 73 678ZM332 657T313 679T294 730Q294 767 314 791T373 816Q408 816 426 795T445
743Q445 705 424 681T360 657Q332 657 313 679Z" />
<glyph unicode="&#xa9;" glyph-name="copyright" horiz-adv-x="1040" d="M96 606T153 703T307 857T521 914Q637 914 734 858T887 704T944 489Q944 372 888 275T734 120T521 63Q405 63 308 120T153 274T96 489Q96 606 153 703ZM162 389T209 304T339 170T521 120Q620
120 702 170T831 304T878 489Q878 590 831 674T702 808T521 858Q421 858 339 808T209 674T162 489Q162 389 209 304ZM419 251T363 316T307 487Q307 555 339 611T427 699T554 732Q590 732 628 724T680 702L678 582H618L597 648Q587 656 571 660T524 664Q468 664
437 621T406 505Q406 429 447 382T555 335Q585 335 613 346T659 376L686 327Q663 298 619 275T525 251Q419 251 363 316Z" />
<glyph unicode="&#xaa;" glyph-name="ordfeminine" horiz-adv-x="541" d="M157 335T125 349T72 393T52 462Q52 535 121 570T339 610V631Q339 683 319 705T247 727Q209 727 165 715T91 688L63 748Q96 769 153 786T266 803Q358 803 408 765T459 641V403H515V348Q498
344 468 340T413 336Q343 336 343 381V413Q321 377 283 356T193 335Q157 335 125 349ZM292 397T339 450V568Q256 566 217 542T177 468Q177 435 195 416T242 397Q292 397 339 450Z" />
<glyph unicode="&#xab;" glyph-name="guillemotleft" horiz-adv-x="686" d="M335 528L192 298L335 75L277 45L56 262V335L277 557L335 528ZM620 528L463 298L620 75L562 45L327 262V335L562 557L620 528Z" />
<glyph unicode="&#xac;" glyph-name="logicalnot" horiz-adv-x="688" d="M586 85H488V272H103V355H586V85Z" />
<glyph unicode="&#xad;" glyph-name="uni00AD" horiz-adv-x="631" d="M519 273H112V367H519V273Z" />
<glyph unicode="&#xae;" glyph-name="registered" horiz-adv-x="1040" d="M96 606T153 703T307 857T521 914Q637 914 734 858T887 704T944 489Q944 372 888 275T734 120T521 63Q405 63 308 120T153 274T96 489Q96 606 153 703ZM162 389T209 304T339 170T521 120Q620
120 702 170T831 304T878 489Q878 590 831 674T702 808T521 858Q421 858 339 808T209 674T162 489Q162 389 209 304ZM365 663L323 674V724H411Q435 723 477 725Q507 727 531 727Q623 727 668 693T713 601Q713 548 687 511T609 462Q644 447 660 425T691 364Q703
333 713 319T746 303V254H654Q629 254 618 274T594 336Q582 380 569 405T527 440H463V309L511 299V254H323V299L365 311V663ZM479 497T530 497Q562 497 583 523T605 586Q605 632 584 651T518 671Q483 671 463 666V501Q479 497 530 497Z" />
<glyph unicode="&#xaf;" glyph-name="overscore" horiz-adv-x="333" d="M314 694H17V780H314V694Z" />
<glyph unicode="&#xb0;" glyph-name="degree" horiz-adv-x="489" d="M196 453T155 477T90 542T65 631Q65 681 89 721T154 785T244 809Q295 809 336 785T401 720T425 631Q425 581 401 541T335 477T244 453Q196 453 155 477ZM287 531T313 559T339 631Q339 672 312
702T244 732Q203 732 177 703T150 631Q150 590 178 561T245 531Q287 531 313 559Z" />
<glyph unicode="&#xb1;" glyph-name="plusminus" horiz-adv-x="661" d="M286 388L284 468V579H377V468L373 388L450 393H559V302H450L373 305L377 228V120H284V228L286 305L196 302H102V393H196L286 388ZM553 0H107V88H553V0Z" />
<glyph unicode="&#xb2;" glyph-name="uni00B2" horiz-adv-x="506" d="M103 392T162 442T263 551T306 663Q306 703 282 727T218 751Q153 751 92 698L52 742Q79 774 130 801T248 829Q330 829 376 789T423 678Q423 603 344 519T155 372L373 390L412 463L470 452L444
308H73L52 362Q103 392 162 442Z" />
<glyph unicode="&#xb3;" glyph-name="uni00B3" horiz-adv-x="490" d="M178 305T135 313T66 335V399Q88 390 121 384T181 377Q326 377 326 467Q326 499 300 522T220 546Q208 542 162 528L144 580Q169 586 210 602Q248 618 270 640T293 695Q293 756 210 756Q177
756 143 746T89 719L57 772Q81 795 133 813T242 831Q321 831 365 798T410 710Q410 667 381 635T294 580Q344 582 380 566T435 523T454 464Q454 393 391 349T212 305Q178 305 135 313Z" />
<glyph unicode="&#xb4;" glyph-name="acute" horiz-adv-x="333" d="M85 685L257 893L343 816Q319 777 249 718T137 642L85 685Z" />
<glyph unicode="&#xb5;" glyph-name="uni00B5" horiz-adv-x="683" d="M104 483L50 503V554L223 566L244 554V166Q244 145 256 124T291 88T345 73Q384 73 409 91T443 132V483L381 503L380 554L565 566L583 554V62H638V5Q586 -13 529 -13Q472 -13 472 41V75Q457
38 421 14T343 -10Q310 -10 282 1T235 31V-182H104V483Z" />
<glyph unicode="&#xb6;" glyph-name="paragraph" horiz-adv-x="783" d="M276 390Q170 390 117 448T64 615Q64 679 95 728T187 806T333 835Q385 835 478 830Q542 826 587 826H709V765L628 754V69L697 59V0H517V756Q471 762 420 762Q396 762 388 760V0H178V59L276 69V390Z" />
<glyph unicode="&#xb7;" glyph-name="middot" horiz-adv-x="215" d="M69 305T46 326T23 381Q23 418 49 441T114 465Q150 465 171 443T192 389Q192 350 167 328T100 305Q69 305 46 326Z" />
<glyph unicode="&#xb8;" glyph-name="cedilla" horiz-adv-x="300" d="M70 -251T50 -247T16 -236L17 -153Q37 -160 59 -160Q98 -160 114 -147T130 -91Q130 -66 119 -39T98 2L141 7L161 2Q184 -17 206 -56T229 -138Q229 -200 194 -225T87 -251Q70 -251 50 -247Z" />
<glyph unicode="&#xb9;" glyph-name="uni00B9" horiz-adv-x="490" d="M206 711Q172 698 132 690T85 681L66 745Q121 761 167 780T251 829H253L320 817V378L435 367V308H78V367L206 378V711Z" />
<glyph unicode="&#xba;" glyph-name="ordmasculine" horiz-adv-x="528" d="M163 338T104 396T45 568Q45 645 77 697T160 774T270 799Q373 799 428 741T483 574Q483 494 451 441T369 363T262 338Q163 338 104 396ZM295 393T314 405T344 454T354 562Q354 650 332
697T266 745Q174 745 174 577Q174 490 198 442T262 393Q295 393 314 405Z" />
<glyph unicode="&#xbb;" glyph-name="guillemotright" horiz-adv-x="686" d="M359 335V262L124 45L66 75L223 298L66 528L124 557L359 335ZM630 335V262L410 45L352 75L494 298L352 528L410 557L630 335Z" />
<glyph unicode="&#xbc;" glyph-name="onequarter" horiz-adv-x="1197" d="M206 661Q172 648 132 640T85 631L66 695Q121 711 167 730T251 779H253L320 767V328L435 317V258H78V317L206 328V661ZM804 804L455 -88L368 -83L718 810L804 804ZM741 217T815 356T912
541H1016L1037 517L856 225L807 161L984 169L997 298L1084 303V174L1171 178V101H1084V1H983L982 101H741L704 149Q741 217 815 356Z" />
<glyph unicode="&#xbd;" glyph-name="onehalf" horiz-adv-x="1188" d="M206 661Q172 648 132 640T85 631L66 695Q121 711 167 730T251 779H253L320 767V328L435 317V258H78V317L206 328V661ZM804 804L455 -88L368 -83L718 810L804 804ZM785 76T844 126T945 235T988
347Q988 387 964 411T900 435Q835 435 774 382L734 426Q761 458 812 485T930 513Q1012 513 1058 473T1105 362Q1105 287 1026 203T837 56L1055 74L1094 147L1152 136L1126 -8H755L734 46Q785 76 844 126Z" />
<glyph unicode="&#xbe;" glyph-name="threequarters" horiz-adv-x="1197" d="M178 255T135 263T66 285V349Q88 340 121 334T181 327Q326 327 326 417Q326 449 300 472T220 496Q208 492 162 478L144 530Q169 536 210 552Q248 568 270 590T293 645Q293 706 210 706Q177
706 143 696T89 669L57 722Q81 745 133 763T242 781Q321 781 365 748T410 660Q410 617 381 585T294 530Q344 532 380 516T435 473T454 414Q454 343 391 299T212 255Q178 255 135 263ZM804 804L455 -88L368 -83L718 810L804 804ZM741 217T815 356T912 541H1016L1037
517L856 225L807 161L984 169L997 298L1084 303V174L1171 178V101H1084V1H983L982 101H741L704 149Q741 217 815 356Z" />
<glyph unicode="&#xbf;" glyph-name="questiondown" horiz-adv-x="503" d="M328 702T351 681T375 628Q375 591 349 568T284 544Q248 544 226 566T204 619Q204 658 230 680T298 702Q328 702 351 681ZM365 366T369 306Q369 276 349 249T300 199T216 138L178 112Q177
110 170 87T163 37Q163 -4 186 -41T255 -102T368 -125Q408 -125 444 -107L464 -186Q443 -197 404 -205T316 -214Q217 -214 152 -182T57 -95T27 25Q27 75 46 110T93 169T165 220Q195 239 213 253T242 283Q247 295 246 313Q246 391 239 440H325Q365 366 369 306Z"
/>
<glyph unicode="&#xc0;" glyph-name="Agrave" horiz-adv-x="702" d="M273 747H426L657 70L715 60V0H420V60L495 70L456 200H197L158 69L239 60V0H-16L-17 60L43 70L273 747ZM342 578L324 656L305 577L216 270H436L342 578ZM330 809T277 846T194 919L290 982L425
833L367 795Q330 809 277 846Z" />
<glyph unicode="&#xc1;" glyph-name="Aacute" horiz-adv-x="702" d="M273 747H426L657 70L715 60V0H420V60L495 70L456 200H197L158 69L239 60V0H-16L-17 60L43 70L273 747ZM342 578L324 656L305 577L216 270H436L342 578ZM267 833L397 982L498 919Q464 880 415
845T330 795L267 833Z" />
<glyph unicode="&#xc2;" glyph-name="Acircumflex" horiz-adv-x="702" d="M273 747H426L657 70L715 60V0H420V60L495 70L456 200H197L158 69L239 60V0H-16L-17 60L43 70L273 747ZM342 578L324 656L305 577L216 270H436L342 578ZM394 981L538 836L489 797L349 895L208
797L160 835L305 981H394Z" />
<glyph unicode="&#xc3;" glyph-name="Atilde" horiz-adv-x="702" d="M273 747H426L657 70L715 60V0H420V60L495 70L456 200H197L158 69L239 60V0H-16L-17 60L43 70L273 747ZM342 578L324 656L305 577L216 270H436L342 578ZM392 808T374 817T332 847Q315 862 303
869T276 876Q252 876 239 861T216 816L160 850Q175 902 205 931T280 961Q309 961 328 951T371 920Q389 905 400 899T425 892Q464 892 484 953L540 919Q508 808 421 808Q392 808 374 817Z" />
<glyph unicode="&#xc4;" glyph-name="Adieresis" horiz-adv-x="702" d="M273 747H426L657 70L715 60V0H420V60L495 70L456 200H197L158 69L239 60V0H-16L-17 60L43 70L273 747ZM342 578L324 656L305 577L216 270H436L342 578ZM183 809T165 830T147 880Q147 917
166 940T224 964H225Q259 964 277 944T295 893Q295 856 274 833T212 809H211Q183 809 165 830ZM437 809T419 830T401 880Q401 917 420 940T478 964H479Q514 964 531 944T549 893Q549 855 528 832T465 809Q437 809 419 830Z" />
<glyph unicode="&#xc5;" glyph-name="Aring" horiz-adv-x="702" d="M-17 60L43 70L270 738Q222 752 200 782T177 854Q177 915 225 949T350 983Q435 983 477 949T519 857Q519 814 495 785T428 742L657 70L715 60V0H420V60L495 70L456 200H197L158 69L239 60V0H-16L-17
60ZM264 824T284 802T348 780Q432 780 432 851Q432 886 413 908T349 930Q264 930 264 857Q264 824 284 802ZM436 270L342 578L324 656L305 577L216 270H436Z" />
<glyph unicode="&#xc6;" glyph-name="AE" horiz-adv-x="937" d="M400 209H160L106 70L182 59V0H-84V59L-12 70L244 669L114 682V743H852L867 573H797L763 675L546 684V414L684 418L700 499H764V257H700L685 343L546 346V63L790 76L852 204L933 182L899 0H319V59L400
70V209ZM400 677H339L287 541L187 281H400V677Z" />
<glyph unicode="&#xc7;" glyph-name="Ccedilla" horiz-adv-x="658" d="M209 -11T119 90T29 368Q29 484 76 570T207 704T395 751Q439 751 480 746T577 731Q619 724 623 724L612 518H520L489 661Q478 672 451 679T382 686Q297 686 246 608T194 380Q194 236 243 145T386
54Q431 54 455 62T497 87L541 190L625 182L605 27Q584 25 564 20T538 13Q498 2 464 -4T379 -11Q209 -11 119 90ZM305 -251T285 -247T251 -236L252 -153Q272 -160 294 -160Q333 -160 349 -147T365 -91Q365 -66 354 -39T333 2L376 7L396 2Q419 -17 441 -56T464 -138Q464
-200 429 -225T322 -251Q305 -251 285 -247Z" />
<glyph unicode="&#xc8;" glyph-name="Egrave" horiz-adv-x="655" d="M118 668L38 681V743H571L584 575H514L481 674L265 683V414L404 417L420 499H484V257H420L404 343L265 346V64L507 76L565 204L640 183L614 0H39V60L118 70V668ZM323 809T270 846T187 919L283
982L418 833L360 795Q323 809 270 846Z" />
<glyph unicode="&#xc9;" glyph-name="Eacute" horiz-adv-x="655" d="M118 668L38 681V743H571L584 575H514L481 674L265 683V414L404 417L420 499H484V257H420L404 343L265 346V64L507 76L565 204L640 183L614 0H39V60L118 70V668ZM260 833L390 982L491 919Q457
880 408 845T323 795L260 833Z" />
<glyph unicode="&#xca;" glyph-name="Ecircumflex" horiz-adv-x="655" d="M118 668L38 681V743H571L584 575H514L481 674L265 683V414L404 417L420 499H484V257H420L404 343L265 346V64L507 76L565 204L640 183L614 0H39V60L118 70V668ZM387 981L531 836L482 797L342
895L201 797L153 835L298 981H387Z" />
<glyph unicode="&#xcb;" glyph-name="Edieresis" horiz-adv-x="655" d="M118 668L38 681V743H571L584 575H514L481 674L265 683V414L404 417L420 499H484V257H420L404 343L265 346V64L507 76L565 204L640 183L614 0H39V60L118 70V668ZM176 809T158 830T140 880Q140
917 159 940T217 964H218Q252 964 270 944T288 893Q288 856 267 833T205 809H204Q176 809 158 830ZM430 809T412 830T394 880Q394 917 413 940T471 964H472Q507 964 524 944T542 893Q542 855 521 832T458 809Q430 809 412 830Z" />
<glyph unicode="&#xcc;" glyph-name="Igrave" horiz-adv-x="411" d="M131 668L46 681V743H366V681L278 668V70L366 59V0H46V60L131 70V668ZM188 809T135 846T52 919L148 982L283 833L225 795Q188 809 135 846Z" />
<glyph unicode="&#xcd;" glyph-name="Iacute" horiz-adv-x="411" d="M131 668L46 681V743H366V681L278 668V70L366 59V0H46V60L131 70V668ZM125 833L255 982L356 919Q322 880 273 845T188 795L125 833Z" />
<glyph unicode="&#xce;" glyph-name="Icircumflex" horiz-adv-x="411" d="M131 668L46 681V743H366V681L278 668V70L366 59V0H46V60L131 70V668ZM252 981L396 836L347 797L207 895L66 797L18 835L163 981H252Z" />
<glyph unicode="&#xcf;" glyph-name="Idieresis" horiz-adv-x="411" d="M131 668L46 681V743H366V681L278 668V70L366 59V0H46V60L131 70V668ZM41 809T23 830T5 880Q5 917 24 940T82 964H83Q117 964 135 944T153 893Q153 856 132 833T70 809H69Q41 809 23 830ZM295
809T277 830T259 880Q259 917 278 940T336 964H337Q372 964 389 944T407 893Q407 855 386 832T323 809Q295 809 277 830Z" />
<glyph unicode="&#xd0;" glyph-name="Eth" horiz-adv-x="761" d="M118 668L43 681V743H189Q222 743 278 747Q291 748 317 749T365 750Q549 750 640 658T732 397Q732 279 687 187T557 44T361 -8Q332 -8 270 -4Q212 0 191 0H39V60L118 70V354H47V417H118V668ZM416
354H263V67Q297 58 358 58Q458 60 515 138T572 374Q572 523 516 604T342 686Q317 686 295 683T263 679V417H416V354Z" />
<glyph unicode="&#xd1;" glyph-name="Ntilde" horiz-adv-x="803" d="M119 668L40 681V743H267L565 293L621 179V668L535 681V743H783V681L706 668V0H585L274 473L204 605V70L305 60V0H40V60L119 70V668ZM461 808T443 817T401 847Q384 862 372 869T345 876Q321
876 308 861T285 816L229 850Q244 902 274 931T349 961Q378 961 397 951T440 920Q458 905 469 899T494 892Q533 892 553 953L609 919Q577 808 490 808Q461 808 443 817Z" />
<glyph unicode="&#xd2;" glyph-name="Ograve" horiz-adv-x="728" d="M192 -11T111 91T30 369Q30 484 72 571T192 705T369 752Q534 752 616 655T699 382Q699 266 656 177T534 38T355 -11Q192 -11 111 91ZM283 691T237 610T191 370Q191 213 235 132T363 50Q444 50
490 135T536 382Q536 538 492 614T365 691Q283 691 237 610ZM350 809T297 846T214 919L310 982L445 833L387 795Q350 809 297 846Z" />
<glyph unicode="&#xd3;" glyph-name="Oacute" horiz-adv-x="728" d="M192 -11T111 91T30 369Q30 484 72 571T192 705T369 752Q534 752 616 655T699 382Q699 266 656 177T534 38T355 -11Q192 -11 111 91ZM283 691T237 610T191 370Q191 213 235 132T363 50Q444 50
490 135T536 382Q536 538 492 614T365 691Q283 691 237 610ZM287 833L417 982L518 919Q484 880 435 845T350 795L287 833Z" />
<glyph unicode="&#xd4;" glyph-name="Ocircumflex" horiz-adv-x="728" d="M192 -11T111 91T30 369Q30 484 72 571T192 705T369 752Q534 752 616 655T699 382Q699 266 656 177T534 38T355 -11Q192 -11 111 91ZM283 691T237 610T191 370Q191 213 235 132T363 50Q444
50 490 135T536 382Q536 538 492 614T365 691Q283 691 237 610ZM414 981L558 836L509 797L369 895L228 797L180 835L325 981H414Z" />
<glyph unicode="&#xd5;" glyph-name="Otilde" horiz-adv-x="728" d="M192 -11T111 91T30 369Q30 484 72 571T192 705T369 752Q534 752 616 655T699 382Q699 266 656 177T534 38T355 -11Q192 -11 111 91ZM283 691T237 610T191 370Q191 213 235 132T363 50Q444 50
490 135T536 382Q536 538 492 614T365 691Q283 691 237 610ZM412 808T394 817T352 847Q335 862 323 869T296 876Q272 876 259 861T236 816L180 850Q195 902 225 931T300 961Q329 961 348 951T391 920Q409 905 420 899T445 892Q484 892 504 953L560 919Q528 808
441 808Q412 808 394 817Z" />
<glyph unicode="&#xd6;" glyph-name="Odieresis" horiz-adv-x="728" d="M192 -11T111 91T30 369Q30 484 72 571T192 705T369 752Q534 752 616 655T699 382Q699 266 656 177T534 38T355 -11Q192 -11 111 91ZM283 691T237 610T191 370Q191 213 235 132T363 50Q444
50 490 135T536 382Q536 538 492 614T365 691Q283 691 237 610ZM203 809T185 830T167 880Q167 917 186 940T244 964H245Q279 964 297 944T315 893Q315 856 294 833T232 809H231Q203 809 185 830ZM457 809T439 830T421 880Q421 917 440 940T498 964H499Q534 964
551 944T569 893Q569 855 548 832T485 809Q457 809 439 830Z" />
<glyph unicode="&#xd7;" glyph-name="multiply" horiz-adv-x="615" d="M73 461L150 538L308 365L465 538L541 461L374 301L541 141L465 65L308 237L150 65L76 141L242 301L73 461Z" />
<glyph unicode="&#xd8;" glyph-name="Oslash" horiz-adv-x="728" d="M110 68T70 156T30 369Q30 484 72 571T192 705T369 752Q427 752 475 739L517 847L580 828L536 717Q618 677 658 591T699 382Q699 267 656 178T536 40T359 -11Q302 -11 254 1L207 -111L141 -92L191
25Q110 68 70 156ZM283 691T237 610T191 370Q191 294 205 234T248 135L448 662Q415 691 365 691Q283 691 237 610ZM536 535T481 611L278 84Q313 50 363 50Q444 50 490 135T536 382Q536 535 481 611Z" />
<glyph unicode="&#xd9;" glyph-name="Ugrave" horiz-adv-x="743" d="M233 -8T159 68T85 307V668L19 681V743H321V681L236 667V294Q236 56 405 56Q488 56 528 117T568 290V667L482 681V743H732V681L664 668V298Q664 142 589 67T385 -8Q233 -8 159 68ZM383 809T330
846T247 919L343 982L478 833L420 795Q383 809 330 846Z" />
<glyph unicode="&#xda;" glyph-name="Uacute" horiz-adv-x="743" d="M233 -8T159 68T85 307V668L19 681V743H321V681L236 667V294Q236 56 405 56Q488 56 528 117T568 290V667L482 681V743H732V681L664 668V298Q664 142 589 67T385 -8Q233 -8 159 68ZM320 833L450
982L551 919Q517 880 468 845T383 795L320 833Z" />
<glyph unicode="&#xdb;" glyph-name="Ucircumflex" horiz-adv-x="743" d="M233 -8T159 68T85 307V668L19 681V743H321V681L236 667V294Q236 56 405 56Q488 56 528 117T568 290V667L482 681V743H732V681L664 668V298Q664 142 589 67T385 -8Q233 -8 159 68ZM447
981L591 836L542 797L402 895L261 797L213 835L358 981H447Z" />
<glyph unicode="&#xdc;" glyph-name="Udieresis" horiz-adv-x="743" d="M233 -8T159 68T85 307V668L19 681V743H321V681L236 667V294Q236 56 405 56Q488 56 528 117T568 290V667L482 681V743H732V681L664 668V298Q664 142 589 67T385 -8Q233 -8 159 68ZM236 809T218
830T200 880Q200 917 219 940T277 964H278Q312 964 330 944T348 893Q348 856 327 833T265 809H264Q236 809 218 830ZM490 809T472 830T454 880Q454 917 473 940T531 964H532Q567 964 584 944T602 893Q602 855 581 832T518 809Q490 809 472 830Z" />
<glyph unicode="&#xdd;" glyph-name="Yacute" horiz-adv-x="651" d="M255 295L41 668L-16 681V743H278V681L207 668L332 423L360 354L389 423L504 668L426 681V743H670V681L608 669L409 296V70L518 60V0H149V60L255 70V295ZM261 833L391 982L492 919Q458 880 409
845T324 795L261 833Z" />
<glyph unicode="&#xde;" glyph-name="Thorn" horiz-adv-x="660" d="M117 668L38 682V743H348L349 682L264 668V573L302 576Q361 583 412 583Q523 583 580 534T637 385Q637 272 571 216T383 159Q327 159 264 164V70L368 59V0H37V59L117 70V668ZM413 219T447 260T481
379Q481 443 450 481T352 519Q306 519 264 511V223Q292 219 322 219T358 219Q413 219 447 260Z" />
<glyph unicode="&#xdf;" glyph-name="germandbls" horiz-adv-x="653" d="M83 470Q83 563 121 635T227 746T382 786Q473 786 522 752T572 653Q572 611 556 586T506 529Q482 507 471 492T460 455Q460 433 475 415T525 364Q559 334 581 310T620 250T636 170Q636 85
574 37T397 -11Q380 -11 354 -8T313 0V79Q327 73 348 69T391 64Q436 64 460 88T484 149Q484 192 465 221T409 288Q374 323 357 349T340 411Q340 436 351 455T384 501Q411 534 425 561T440 632Q440 719 359 719Q295 719 261 660T226 488V0H23V60L83 69V470Z" />
<glyph unicode="&#xe0;" glyph-name="agrave" horiz-adv-x="566" d="M34 247T125 293T362 340V363Q362 404 354 427T323 461T257 473Q208 473 169 461T88 428L57 492Q72 505 107 523T192 554T293 568Q370 568 413 548T476 484T495 366V60H549V4Q529 -1 492 -6T427
-11Q393 -11 382 -1T370 40V67Q343 37 300 13T203 -11Q157 -11 119 8T57 65T34 156Q34 247 125 293ZM288 72T315 84T362 115V279Q272 279 228 249T183 170Q183 122 205 97T267 72Q288 72 315 84ZM281 652T239 684T157 753T102 816L188 893L357 685L307 642H306Q281
652 239 684Z" />
<glyph unicode="&#xe1;" glyph-name="aacute" horiz-adv-x="566" d="M34 247T125 293T362 340V363Q362 404 354 427T323 461T257 473Q208 473 169 461T88 428L57 492Q72 505 107 523T192 554T293 568Q370 568 413 548T476 484T495 366V60H549V4Q529 -1 492 -6T427
-11Q393 -11 382 -1T370 40V67Q343 37 300 13T203 -11Q157 -11 119 8T57 65T34 156Q34 247 125 293ZM288 72T315 84T362 115V279Q272 279 228 249T183 170Q183 122 205 97T267 72Q288 72 315 84ZM184 686L353 894L441 817Q417 777 348 719T235 643L184 686Z" />
<glyph unicode="&#xe2;" glyph-name="acircumflex" horiz-adv-x="566" d="M34 247T125 293T362 340V363Q362 404 354 427T323 461T257 473Q208 473 169 461T88 428L57 492Q72 505 107 523T192 554T293 568Q370 568 413 548T476 484T495 366V60H549V4Q529 -1 492
-6T427 -11Q393 -11 382 -1T370 40V67Q343 37 300 13T203 -11Q157 -11 119 8T57 65T34 156Q34 247 125 293ZM288 72T315 84T362 115V279Q272 279 228 249T183 170Q183 122 205 97T267 72Q288 72 315 84ZM321 863L470 668L420 630L278 762L132 629L85 667L234 863H321Z"
/>
<glyph unicode="&#xe3;" glyph-name="atilde" horiz-adv-x="566" d="M34 247T125 293T362 340V363Q362 404 354 427T323 461T257 473Q208 473 169 461T88 428L57 492Q72 505 107 523T192 554T293 568Q370 568 413 548T476 484T495 366V60H549V4Q529 -1 492 -6T427
-11Q393 -11 382 -1T370 40V67Q343 37 300 13T203 -11Q157 -11 119 8T57 65T34 156Q34 247 125 293ZM288 72T315 84T362 115V279Q272 279 228 249T183 170Q183 122 205 97T267 72Q288 72 315 84ZM85 752T121 784T205 816Q234 816 254 805T301 772Q318 756 331 749T358
741Q382 741 394 754T411 780T418 796L477 763Q468 713 436 681T355 648Q327 648 307 659T260 693Q241 709 228 717T200 725Q178 725 166 714T145 689T132 669L75 702Q85 752 121 784Z" />
<glyph unicode="&#xe4;" glyph-name="adieresis" horiz-adv-x="566" d="M34 247T125 293T362 340V363Q362 404 354 427T323 461T257 473Q208 473 169 461T88 428L57 492Q72 505 107 523T192 554T293 568Q370 568 413 548T476 484T495 366V60H549V4Q529 -1 492
-6T427 -11Q393 -11 382 -1T370 40V67Q343 37 300 13T203 -11Q157 -11 119 8T57 65T34 156Q34 247 125 293ZM288 72T315 84T362 115V279Q272 279 228 249T183 170Q183 122 205 97T267 72Q288 72 315 84ZM121 648T103 669T85 721Q85 759 104 783T162 807Q197 807
214 786T232 734Q232 695 214 672T153 648Q121 648 103 669ZM361 648T343 670T325 721Q325 759 344 783T402 807Q437 807 454 786T472 734Q472 695 453 672T392 648Q361 648 343 670Z" />
<glyph unicode="&#xe5;" glyph-name="aring" horiz-adv-x="566" d="M34 247T125 293T362 340V363Q362 404 354 427T323 461T257 473Q208 473 169 461T88 428L57 492Q72 505 107 523T192 554T293 568Q370 568 413 548T476 484T495 366V60H549V4Q529 -1 492 -6T427
-11Q393 -11 382 -1T370 40V67Q343 37 300 13T203 -11Q157 -11 119 8T57 65T34 156Q34 247 125 293ZM288 72T315 84T362 115V279Q272 279 228 249T183 170Q183 122 205 97T267 72Q288 72 315 84ZM191 634T149 673T107 774Q107 819 131 851T196 901T284 918Q364
918 406 879T449 776Q448 710 399 672T276 634Q191 634 149 673ZM323 693T344 712T365 772Q365 811 344 834T279 858Q235 858 213 838T191 779Q191 742 213 718T278 693Q323 693 344 712Z" />
<glyph unicode="&#xe6;" glyph-name="ae" horiz-adv-x="868" d="M129 -11T81 31T33 151Q33 244 121 291T359 340Q359 395 351 422T321 461T253 472Q208 472 172 462T111 441T79 427L49 491Q64 505 101 523T189 554T290 568Q354 568 392 553T449 506Q518 570 624
570Q725 570 779 518T835 368Q835 304 828 270H500Q504 179 543 129T654 78Q693 78 735 91T803 121L826 67Q799 38 739 14T617 -11Q470 -11 403 92Q375 50 321 20T201 -11Q129 -11 81 31ZM693 330Q694 342 694 373Q694 506 607 506Q558 506 531 468T499 330H693ZM301
72T332 91T380 138Q357 200 357 283Q271 282 229 250T186 170Q186 119 207 96T266 72Q301 72 332 91Z" />
<glyph unicode="&#xe7;" glyph-name="ccedilla" horiz-adv-x="519" d="M32 361T66 428T165 532T316 570Q356 570 385 564T450 548L479 540L473 369H386L361 479Q355 505 302 505Q246 505 215 456T182 303Q182 193 220 135T321 76Q397 76 461 117L484 65Q463 41
418 19T319 -9Q341 -33 358 -67T376 -137Q376 -199 341 -225T234 -251Q217 -251 197 -247T163 -236L164 -153Q184 -160 206 -160Q245 -160 261 -147T278 -91Q278 -70 270 -48T252 -9Q142 3 87 80T32 275Q32 361 66 428Z" />
<glyph unicode="&#xe8;" glyph-name="egrave" horiz-adv-x="550" d="M165 -11T101 66T36 278Q36 368 69 434T164 535T305 570Q405 570 459 518T515 368Q515 302 507 270H182Q186 179 225 129T336 78Q375 78 416 91T482 122L507 67Q480 38 420 14T297 -11Q165 -11
101 66ZM375 330Q377 358 377 373Q377 506 288 506Q239 506 212 467T182 330H375ZM298 652T256 684T174 753T119 816L205 893L374 685L324 642H323Q298 652 256 684Z" />
<glyph unicode="&#xe9;" glyph-name="eacute" horiz-adv-x="550" d="M165 -11T101 66T36 278Q36 368 69 434T164 535T305 570Q405 570 459 518T515 368Q515 302 507 270H182Q186 179 225 129T336 78Q375 78 416 91T482 122L507 67Q480 38 420 14T297 -11Q165 -11
101 66ZM375 330Q377 358 377 373Q377 506 288 506Q239 506 212 467T182 330H375ZM201 686L370 894L458 817Q434 777 365 719T252 643L201 686Z" />
<glyph unicode="&#xea;" glyph-name="ecircumflex" horiz-adv-x="550" d="M165 -11T101 66T36 278Q36 368 69 434T164 535T305 570Q405 570 459 518T515 368Q515 302 507 270H182Q186 179 225 129T336 78Q375 78 416 91T482 122L507 67Q480 38 420 14T297 -11Q165
-11 101 66ZM375 330Q377 358 377 373Q377 506 288 506Q239 506 212 467T182 330H375ZM338 863L487 668L437 630L295 762L149 629L102 667L251 863H338Z" />
<glyph unicode="&#xeb;" glyph-name="edieresis" horiz-adv-x="550" d="M165 -11T101 66T36 278Q36 368 69 434T164 535T305 570Q405 570 459 518T515 368Q515 302 507 270H182Q186 179 225 129T336 78Q375 78 416 91T482 122L507 67Q480 38 420 14T297 -11Q165
-11 101 66ZM375 330Q377 358 377 373Q377 506 288 506Q239 506 212 467T182 330H375ZM138 648T120 669T102 721Q102 759 121 783T179 807Q214 807 231 786T249 734Q249 695 231 672T170 648Q138 648 120 669ZM378 648T360 670T342 721Q342 759 361 783T419 807Q454
807 471 786T489 734Q489 695 470 672T409 648Q378 648 360 670Z" />
<glyph unicode="&#xec;" glyph-name="igrave" horiz-adv-x="347" d="M111 461L40 480V547L223 569H225L253 549V68L320 60V0H41V60L111 69V461ZM177 652T135 684T53 753T-2 816L84 893L253 685L203 642H202Q177 652 135 684Z" />
<glyph unicode="&#xed;" glyph-name="iacute" horiz-adv-x="347" d="M111 461L40 480V547L223 569H225L253 549V68L320 60V0H41V60L111 69V461ZM80 686L249 894L337 817Q313 777 244 719T131 643L80 686Z" />
<glyph unicode="&#xee;" glyph-name="icircumflex" horiz-adv-x="347" d="M111 461L40 480V547L223 569H225L253 549V68L320 60V0H41V60L111 69V461ZM217 863L366 668L316 630L174 762L28 629L-19 667L130 863H217Z" />
<glyph unicode="&#xef;" glyph-name="idieresis" horiz-adv-x="347" d="M111 461L40 480V547L223 569H225L253 549V68L320 60V0H41V60L111 69V461ZM17 648T-1 669T-19 721Q-19 759 0 783T58 807Q93 807 110 786T128 734Q128 695 110 672T49 648Q17 648 -1 669ZM257
648T239 670T221 721Q221 759 240 783T298 807Q333 807 350 786T368 734Q368 695 349 672T288 648Q257 648 239 670Z" />
<glyph unicode="&#xf0;" glyph-name="eth" horiz-adv-x="595" d="M170 -11T103 64T35 265Q35 364 71 433T165 536T292 570Q345 570 385 552Q368 605 332 652T245 733L178 647L120 688L189 772Q162 790 134 803T85 822L110 882Q182 864 241 834L304 915L360 871L301
799Q419 719 491 601T563 329Q563 240 537 164T451 38T296 -11Q170 -11 103 64ZM359 54T386 116T414 311Q414 362 408 406T394 473Q384 486 361 497T304 509Q249 509 219 452T188 279Q188 182 215 118T302 54Q359 54 386 116Z" />
<glyph unicode="&#xf1;" glyph-name="ntilde" horiz-adv-x="681" d="M101 461L37 479V548L203 569H206L231 549V510L230 486Q265 519 321 543T434 567Q495 567 529 545T579 474T594 344V68L655 60V0H397V60L451 68V344Q451 396 444 425T419 468T366 482Q309 482
244 433V69L304 60V0H43V60L101 69V461ZM139 752T175 784T259 816Q288 816 308 805T355 772Q372 756 385 749T412 741Q436 741 448 754T465 780T472 796L531 763Q522 713 490 681T409 648Q381 648 361 659T314 693Q295 709 282 717T254 725Q232 725 220 714T199
689T186 669L129 702Q139 752 175 784Z" />
<glyph unicode="&#xf2;" glyph-name="ograve" horiz-adv-x="629" d="M45 371T82 437T183 536T320 570Q446 570 514 493T583 282Q583 187 546 121T446 22T308 -11Q183 -11 114 66T45 277Q45 371 82 437ZM429 54T429 272Q429 386 402 445T314 505Q198 505 198 287Q198
173 226 114T316 54Q429 54 429 272ZM320 652T278 684T196 753T141 816L227 893L396 685L346 642H345Q320 652 278 684Z" />
<glyph unicode="&#xf3;" glyph-name="oacute" horiz-adv-x="629" d="M45 371T82 437T183 536T320 570Q446 570 514 493T583 282Q583 187 546 121T446 22T308 -11Q183 -11 114 66T45 277Q45 371 82 437ZM429 54T429 272Q429 386 402 445T314 505Q198 505 198 287Q198
173 226 114T316 54Q429 54 429 272ZM223 686L392 894L480 817Q456 777 387 719T274 643L223 686Z" />
<glyph unicode="&#xf4;" glyph-name="ocircumflex" horiz-adv-x="629" d="M45 371T82 437T183 536T320 570Q446 570 514 493T583 282Q583 187 546 121T446 22T308 -11Q183 -11 114 66T45 277Q45 371 82 437ZM429 54T429 272Q429 386 402 445T314 505Q198 505 198
287Q198 173 226 114T316 54Q429 54 429 272ZM360 863L509 668L459 630L317 762L171 629L124 667L273 863H360Z" />
<glyph unicode="&#xf5;" glyph-name="otilde" horiz-adv-x="629" d="M45 371T82 437T183 536T320 570Q446 570 514 493T583 282Q583 187 546 121T446 22T308 -11Q183 -11 114 66T45 277Q45 371 82 437ZM429 54T429 272Q429 386 402 445T314 505Q198 505 198 287Q198
173 226 114T316 54Q429 54 429 272ZM124 752T160 784T244 816Q273 816 293 805T340 772Q357 756 370 749T397 741Q421 741 433 754T450 780T457 796L516 763Q507 713 475 681T394 648Q366 648 346 659T299 693Q280 709 267 717T239 725Q217 725 205 714T184 689T171
669L114 702Q124 752 160 784Z" />
<glyph unicode="&#xf6;" glyph-name="odieresis" horiz-adv-x="629" d="M45 371T82 437T183 536T320 570Q446 570 514 493T583 282Q583 187 546 121T446 22T308 -11Q183 -11 114 66T45 277Q45 371 82 437ZM429 54T429 272Q429 386 402 445T314 505Q198 505 198
287Q198 173 226 114T316 54Q429 54 429 272ZM160 648T142 669T124 721Q124 759 143 783T201 807Q236 807 253 786T271 734Q271 695 253 672T192 648Q160 648 142 669ZM400 648T382 670T364 721Q364 759 383 783T441 807Q476 807 493 786T511 734Q511 695 492 672T431
648Q400 648 382 670Z" />
<glyph unicode="&#xf7;" glyph-name="divide" horiz-adv-x="663" d="M301 463T280 482T258 533Q258 565 283 587T343 610Q377 610 397 589T417 539Q417 504 393 484T331 463Q301 463 280 482ZM561 278H102V367H561V278ZM252 145T277 167T337 189Q372 189 392 169T412
119Q412 84 387 63T324 42Q296 42 274 61T252 111Q252 145 277 167Z" />
<glyph unicode="&#xf8;" glyph-name="oslash" horiz-adv-x="608" d="M35 371T72 437T173 536T310 570Q344 570 374 564L411 669L469 653L434 545Q502 513 537 445T573 282Q573 186 536 120T435 22T297 -11Q265 -11 238 -5L195 -121L134 -103L176 13Q107 44 71
112T35 277Q35 371 72 437ZM188 168T225 112L356 487Q335 505 304 505Q188 505 188 287Q188 168 225 112ZM419 54T419 272Q419 389 383 443L253 71Q276 54 306 54Q419 54 419 272Z" />
<glyph unicode="&#xf9;" glyph-name="ugrave" horiz-adv-x="639" d="M463 -10T448 4T433 46V73Q406 40 357 15T259 -11Q163 -11 122 38T81 202V484L31 498V555L201 568H202L222 554V202Q222 129 240 100T307 71Q366 71 417 117V484L350 499V555L531 568H533L557
554V62H613L612 5Q608 4 575 -3T496 -10Q463 -10 448 4ZM310 652T268 684T186 753T131 816L217 893L386 685L336 642H335Q310 652 268 684Z" />
<glyph unicode="&#xfa;" glyph-name="uacute" horiz-adv-x="639" d="M463 -10T448 4T433 46V73Q406 40 357 15T259 -11Q163 -11 122 38T81 202V484L31 498V555L201 568H202L222 554V202Q222 129 240 100T307 71Q366 71 417 117V484L350 499V555L531 568H533L557
554V62H613L612 5Q608 4 575 -3T496 -10Q463 -10 448 4ZM213 686L382 894L470 817Q446 777 377 719T264 643L213 686Z" />
<glyph unicode="&#xfb;" glyph-name="ucircumflex" horiz-adv-x="639" d="M463 -10T448 4T433 46V73Q406 40 357 15T259 -11Q163 -11 122 38T81 202V484L31 498V555L201 568H202L222 554V202Q222 129 240 100T307 71Q366 71 417 117V484L350 499V555L531 568H533L557
554V62H613L612 5Q608 4 575 -3T496 -10Q463 -10 448 4ZM350 863L499 668L449 630L307 762L161 629L114 667L263 863H350Z" />
<glyph unicode="&#xfc;" glyph-name="udieresis" horiz-adv-x="639" d="M463 -10T448 4T433 46V73Q406 40 357 15T259 -11Q163 -11 122 38T81 202V484L31 498V555L201 568H202L222 554V202Q222 129 240 100T307 71Q366 71 417 117V484L350 499V555L531 568H533L557
554V62H613L612 5Q608 4 575 -3T496 -10Q463 -10 448 4ZM150 648T132 669T114 721Q114 759 133 783T191 807Q226 807 243 786T261 734Q261 695 243 672T182 648Q150 648 132 669ZM390 648T372 670T354 721Q354 759 373 783T431 807Q466 807 483 786T501 734Q501
695 482 672T421 648Q390 648 372 670Z" />
<glyph unicode="&#xfd;" glyph-name="yacute" horiz-adv-x="573" d="M116 -249T96 -246T66 -239V-132Q73 -136 94 -140T132 -144Q182 -144 214 -111T275 0H221L33 485L-12 498V556H263V498L190 486L279 209L315 91L346 209L428 486L365 498V556H582V498L533 486Q478
318 424 162T361 -13Q329 -97 300 -147T231 -223T134 -249Q116 -249 96 -246ZM213 686L382 894L470 817Q446 777 377 719T264 643L213 686Z" />
<glyph unicode="&#xfe;" glyph-name="thorn" horiz-adv-x="621" d="M186 820H188L217 801V506Q244 533 283 551T369 570Q465 570 525 503T586 296Q586 210 550 140T447 30T289 -11Q247 -11 214 -5L217 -67V-175L316 -187V-242H12V-187L79 -175V734L3 746V798L186
820ZM286 482T259 469T217 438V73Q222 62 244 55T295 48Q359 48 397 107T436 284Q436 385 403 433T315 482Q286 482 259 469Z" />
<glyph unicode="&#xff;" glyph-name="ydieresis" horiz-adv-x="573" d="M116 -249T96 -246T66 -239V-132Q73 -136 94 -140T132 -144Q182 -144 214 -111T275 0H221L33 485L-12 498V556H263V498L190 486L279 209L315 91L346 209L428 486L365 498V556H582V498L533
486Q478 318 424 162T361 -13Q329 -97 300 -147T231 -223T134 -249Q116 -249 96 -246ZM150 648T132 669T114 721Q114 759 133 783T191 807Q226 807 243 786T261 734Q261 695 243 672T182 648Q150 648 132 669ZM390 648T372 670T354 721Q354 759 373 783T431 807Q466
807 483 786T501 734Q501 695 482 672T421 648Q390 648 372 670Z" />
<glyph unicode="&#x2013;" glyph-name="endash" horiz-adv-x="817" d="M704 273H112V367H704V273Z" />
<glyph unicode="&#x2014;" glyph-name="emdash" horiz-adv-x="1203" d="M1091 273H112V367H1091V273Z" />
<glyph unicode="&#x2018;" glyph-name="quoteleft" horiz-adv-x="386" d="M179 407T154 430T114 492T99 573Q99 639 122 697T180 797T246 854L281 822V808Q258 787 235 737T212 624Q212 599 220 583T246 545Q261 527 269 512T277 475Q277 445 258 426T209 407Q179
407 154 430Z" />
<glyph unicode="&#x2019;" glyph-name="quoteright" horiz-adv-x="386" d="M104 432V446Q116 457 132 490T161 569T173 659Q173 672 166 682T145 707Q127 725 118 740T108 779Q108 809 127 828T177 847Q207 847 232 826T271 770T286 692Q286 626 263 565T205 460T140
400L104 432Z" />
<glyph unicode="&#x201a;" glyph-name="quotesinglbase" horiz-adv-x="386" d="M104 -229V-215Q116 -204 132 -170T161 -91T173 -2Q173 11 167 21T145 46Q127 64 118 79T108 118Q108 148 127 167T177 186Q207 186 232 165T271 109T286 31Q286 -35 263 -96T205
-201T140 -260L104 -229Z" />
<glyph unicode="&#x201c;" glyph-name="quotedblleft" horiz-adv-x="664" d="M179 407T154 430T114 492T99 573Q99 639 122 697T180 796T245 854H246L281 822V808Q256 785 234 743T212 638Q212 606 221 586T248 542Q263 523 270 509T277 475Q277 445 258 426T209
407Q179 407 154 430ZM457 407T432 430T393 492T378 573Q378 639 401 697T459 797T524 854H525L559 822V808Q534 785 512 743T490 638Q490 606 499 586T526 542Q541 523 548 509T555 475Q555 445 536 426T487 407Q457 407 432 430Z" />
<glyph unicode="&#x201d;" glyph-name="quotedblright" horiz-adv-x="664" d="M104 451V465Q128 486 150 534T173 645Q173 674 164 692T138 731Q123 749 116 763T108 798Q108 828 127 847T177 866Q207 866 232 843T271 782T286 701Q286 634 263 576T205 477T140
419H139L104 451ZM382 451V465Q406 486 428 534T451 645Q451 674 442 692T416 731Q401 749 394 763T386 798Q386 828 405 847T454 866Q484 866 509 843T549 782T564 701Q564 634 541 576T483 477T418 419H417L382 451Z" />
<glyph unicode="&#x201e;" glyph-name="quotedblbase" horiz-adv-x="664" d="M104 -226V-212Q129 -190 151 -147T173 -42Q173 -10 164 10T137 54Q122 73 115 87T108 121Q108 151 127 170T177 189Q207 189 232 166T271 104T286 23Q286 -43 263 -101T205 -200T140
-258H139L104 -226ZM382 -226V-212Q407 -189 429 -147T451 -42Q451 -10 442 10T415 54Q400 73 393 87T386 121Q386 151 405 170T454 189Q484 189 509 166T549 104T564 23Q564 -43 541 -101T483 -200T418 -258H417L382 -226Z" />
<glyph unicode="&#x2022;" glyph-name="bullet" horiz-adv-x="421" d="M160 220T129 253T97 334Q97 384 132 417T216 450Q263 450 293 418T324 335Q324 303 308 277T264 236T206 220Q160 220 129 253Z" />
<glyph unicode="&#x2039;" glyph-name="guilsinglleft" horiz-adv-x="415" d="M349 528L192 298L349 75L291 45L56 262V335L291 557L349 528Z" />
<glyph unicode="&#x203a;" glyph-name="guilsinglright" horiz-adv-x="415" d="M359 335V262L124 45L66 75L223 298L66 528L124 557L359 335Z" />
</font>
</defs>
</svg>
